999
dxfrw 0.5.11
0
SECTION
2
HEADER
9
$ACADVER
1
AC1021
9
$HANDSEED
5
20000
9
$DWGCODEPAGE
3
ANSI_1252
9
$INSBASE
10
0
20
0
30
0
9
$EXTMIN
10
81.5
20
64.003
30
0
9
$EXTMAX
10
159.924
20
134.208
30
0
9
$LIMMIN
10
0
20
0
9
$LIMMAX
10
420
20
297
9
$ORTHOMODE
70
0
9
$LTSCALE
40
1
9
$TEXTSTYLE
7
STANDARD
9
$CLAYER
8
split ring
9
$DIMASZ
40
1
9
$DIMLFAC
40
1
9
$DIMSCALE
40
1
9
$DIMEXO
40
0.025
9
$DIMEXE
40
0.05
9
$DIMTXT
40
1
9
$DIMTSZ
40
0
9
$DIMAUNIT
70
0
9
$DIMADEC
70
2
9
$DIMLUNIT
70
2
9
$DIMSTYLE
2
STANDARD
9
$DIMGAP
40
0.5
9
$DIMTIH
70
0
9
$LUNITS
70
2
9
$LUPREC
70
4
9
$AUNITS
70
0
9
$AUPREC
70
2
9
$SPLINESEGS
70
8
9
$GRIDMODE
70
1
9
$SNAPSTYLE
70
0
9
$GRIDUNIT
10
0
20
0
9
$PINSBASE
10
0
20
0
30
0
9
$PLIMMIN
10
0
20
0
9
$PLIMMAX
10
1.98632572e-05
20
2.80924e-05
9
$INSUNITS
70
1
9
$PSVPSCALE
40
1
0
ENDSEC
0
SECTION
2
CLASSES
0
ENDSEC
0
SECTION
2
TABLES
0
TABLE
2
VPORT
5
8
330
0
100
AcDbSymbolTable
70
1
0
VPORT
5
31
330
2
100
AcDbSymbolTableRecord
100
AcDbViewportTableRecord
2
*ACTIVE
70
0
10
0
20
0
11
1
21
1
12
88.8971763274
22
71.1296257111
13
0
23
0
14
10
24
10
15
10
25
10
16
0
26
0
36
1
17
0
27
0
37
0
40
66.1974962759
41
1.69299820467
42
50
43
0
44
0
50
0
51
0
71
0
72
100
73
1
74
3
75
0
76
1
77
0
78
0
281
0
65
1
110
0
120
0
130
0
111
1
121
0
131
0
112
0
122
1
132
0
79
0
146
0
348
10020
60
7
61
5
292
1
282
1
141
0
142
0
63
250
421
3358443
0
ENDTAB
0
TABLE
2
LTYPE
5
5
330
0
100
AcDbSymbolTable
70
4
0
LTYPE
5
14
330
5
100
AcDbSymbolTableRecord
100
AcDbLinetypeTableRecord
2
ByBlock
70
0
3

72
65
73
0
40
0
0
LTYPE
5
15
330
5
100
AcDbSymbolTableRecord
100
AcDbLinetypeTableRecord
2
ByLayer
70
0
3

72
65
73
0
40
0
0
LTYPE
5
16
330
5
100
AcDbSymbolTableRecord
100
AcDbLinetypeTableRecord
2
Continuous
70
0
3
Solid line
72
65
73
0
40
0
0
LTYPE
5
32
330
5
100
AcDbSymbolTableRecord
100
AcDbLinetypeTableRecord
2
DOT
70
0
3
Dot . . . . . . . . . . . . . . . . . . . . . .
72
65
73
2
40
6.35
49
0
74
0
49
-6.35
74
0
0
LTYPE
5
33
330
5
100
AcDbSymbolTableRecord
100
AcDbLinetypeTableRecord
2
DOT2
70
0
3
Dot (.5x) .....................................
72
65
73
2
40
3.175
49
0
74
0
49
-3.175
74
0
0
LTYPE
5
34
330
5
100
AcDbSymbolTableRecord
100
AcDbLinetypeTableRecord
2
DOTX2
70
0
3
Dot (2x) .  .  .  .  .  .  .  .  .  .  .  .  .
72
65
73
2
40
12.7
49
0
74
0
49
-12.7
74
0
0
LTYPE
5
35
330
5
100
AcDbSymbolTableRecord
100
AcDbLinetypeTableRecord
2
DASHED
70
0
3
Dot . . . . . . . . . . . . . . . . . . . . . .
72
65
73
2
40
19.05
49
12.7
74
0
49
-6.35
74
0
0
LTYPE
5
36
330
5
100
AcDbSymbolTableRecord
100
AcDbLinetypeTableRecord
2
DASHED2
70
0
3
Dashed (.5x) _ _ _ _ _ _ _ _ _ _ _ _ _ _ _ _ _
72
65
73
2
40
9.525
49
6.35
74
0
49
-3.175
74
0
0
LTYPE
5
37
330
5
100
AcDbSymbolTableRecord
100
AcDbLinetypeTableRecord
2
DASHEDX2
70
0
3
Dashed (2x) ____  ____  ____  ____  ____  ___
72
65
73
2
40
38.1
49
25.4
74
0
49
-12.7
74
0
0
LTYPE
5
38
330
5
100
AcDbSymbolTableRecord
100
AcDbLinetypeTableRecord
2
DASHDOT
70
0
3
Dash dot __ . __ . __ . __ . __ . __ . __ . __
72
65
73
4
40
25.4
49
12.7
74
0
49
-6.35
74
0
49
0
74
0
49
-6.35
74
0
0
LTYPE
5
39
330
5
100
AcDbSymbolTableRecord
100
AcDbLinetypeTableRecord
2
DASHDOT2
70
0
3
Dash dot (.5x) _._._._._._._._._._._._._._._.
72
65
73
4
40
12.7
49
6.35
74
0
49
-3.175
74
0
49
0
74
0
49
-3.175
74
0
0
LTYPE
5
3A
330
5
100
AcDbSymbolTableRecord
100
AcDbLinetypeTableRecord
2
DASHDOTX2
70
0
3
Dash dot (2x) ____  .  ____  .  ____  .  ___
72
65
73
4
40
50.8
49
25.4
74
0
49
-12.7
74
0
49
0
74
0
49
-12.7
74
0
0
LTYPE
5
3B
330
5
100
AcDbSymbolTableRecord
100
AcDbLinetypeTableRecord
2
DIVIDE
70
0
3
Divide ____ . . ____ . . ____ . . ____ . . ____
72
65
73
6
40
31.75
49
12.7
74
0
49
-6.35
74
0
49
0
74
0
49
-6.35
74
0
49
0
74
0
49
-6.35
74
0
0
LTYPE
5
3C
330
5
100
AcDbSymbolTableRecord
100
AcDbLinetypeTableRecord
2
DIVIDE2
70
0
3
Divide (.5x) __..__..__..__..__..__..__..__.._
72
65
73
6
40
15.875
49
6.35
74
0
49
-3.175
74
0
49
0
74
0
49
-3.175
74
0
49
0
74
0
49
-3.175
74
0
0
LTYPE
5
3D
330
5
100
AcDbSymbolTableRecord
100
AcDbLinetypeTableRecord
2
DIVIDEX2
70
0
3
Divide (2x) ________  .  .  ________  .  .  _
72
65
73
6
40
63.5
49
25.4
74
0
49
-12.7
74
0
49
0
74
0
49
-12.7
74
0
49
0
74
0
49
-12.7
74
0
0
LTYPE
5
3E
330
5
100
AcDbSymbolTableRecord
100
AcDbLinetypeTableRecord
2
BORDER
70
0
3
Border __ __ . __ __ . __ __ . __ __ . __ __ .
72
65
73
6
40
44.45
49
12.7
74
0
49
-6.35
74
0
49
12.7
74
0
49
-6.35
74
0
49
0
74
0
49
-6.35
74
0
0
LTYPE
5
3F
330
5
100
AcDbSymbolTableRecord
100
AcDbLinetypeTableRecord
2
BORDER2
70
0
3
Border (.5x) __.__.__.__.__.__.__.__.__.__.__.
72
65
73
6
40
22.225
49
6.35
74
0
49
-3.175
74
0
49
6.35
74
0
49
-3.175
74
0
49
0
74
0
49
-3.175
74
0
0
LTYPE
5
40
330
5
100
AcDbSymbolTableRecord
100
AcDbLinetypeTableRecord
2
BORDERX2
70
0
3
Border (2x) ____  ____  .  ____  ____  .  ___
72
65
73
6
40
88.9
49
25.4
74
0
49
-12.7
74
0
49
25.4
74
0
49
-12.7
74
0
49
0
74
0
49
-12.7
74
0
0
LTYPE
5
41
330
5
100
AcDbSymbolTableRecord
100
AcDbLinetypeTableRecord
2
CENTER
70
0
3
Center ____ _ ____ _ ____ _ ____ _ ____ _ ____
72
65
73
4
40
50.8
49
31.75
74
0
49
-6.35
74
0
49
6.35
74
0
49
-6.35
74
0
0
LTYPE
5
42
330
5
100
AcDbSymbolTableRecord
100
AcDbLinetypeTableRecord
2
CENTER2
70
0
3
Center (.5x) ___ _ ___ _ ___ _ ___ _ ___ _ ___
72
65
73
4
40
28.575
49
19.05
74
0
49
-3.175
74
0
49
3.175
74
0
49
-3.175
74
0
0
LTYPE
5
43
330
5
100
AcDbSymbolTableRecord
100
AcDbLinetypeTableRecord
2
CENTERX2
70
0
3
Center (2x) ________  __  ________  __  _____
72
65
73
4
40
101.6
49
63.5
74
0
49
-12.7
74
0
49
12.7
74
0
49
-12.7
74
0
0
ENDTAB
0
TABLE
2
LAYER
5
2
330
0
100
AcDbSymbolTable
70
1
0
LAYER
5
10
330
2
100
AcDbSymbolTableRecord
100
AcDbLayerTableRecord
2
0
70
0
62
5
6
CONTINUOUS
370
0
390
F
0
LAYER
5
44
330
2
100
AcDbSymbolTableRecord
100
AcDbLayerTableRecord
2
__z, dimensions, lengths
70
0
62
3
6
CONTINUOUS
370
0
390
F
0
LAYER
5
45
330
2
100
AcDbSymbolTableRecord
100
AcDbLayerTableRecord
2
dimensions, circle
70
0
62
3
6
CONTINUOUS
370
0
390
F
0
LAYER
5
46
330
2
100
AcDbSymbolTableRecord
100
AcDbLayerTableRecord
2
offsets
70
1
62
5
6
CONTINUOUS
370
0
390
F
0
LAYER
5
47
330
2
100
AcDbSymbolTableRecord
100
AcDbLayerTableRecord
2
split ring
70
0
62
2
6
CONTINUOUS
370
0
390
F
0
ENDTAB
0
TABLE
2
STYLE
5
3
330
0
100
AcDbSymbolTable
70
3
0
STYLE
5
48
330
2
100
AcDbSymbolTableRecord
100
AcDbTextStyleTableRecord
2
Standard
70
0
40
0
41
1
50
0
71
0
42
1
3
txt
4

0
ENDTAB
0
TABLE
2
VIEW
5
6
330
0
100
AcDbSymbolTable
70
0
0
ENDTAB
0
TABLE
2
UCS
5
7
330
0
100
AcDbSymbolTable
70
0
0
ENDTAB
0
TABLE
2
APPID
5
9
330
0
100
AcDbSymbolTable
70
1
0
APPID
5
12
330
9
100
AcDbSymbolTableRecord
100
AcDbRegAppTableRecord
2
ACAD
70
0
0
ENDTAB
0
TABLE
2
DIMSTYLE
5
A
330
0
100
AcDbSymbolTable
70
1
100
AcDbDimStyleTable
71
1
0
DIMSTYLE
105
49
330
A
100
AcDbSymbolTableRecord
100
AcDbDimStyleTableRecord
2
Standard
70
0
40
1
41
1
42
0.025
43
0.38
44
0.05
45
0
46
0
47
0
48
0
140
1
141
0.09
142
0
143
25.4
144
1
145
0
146
1
147
0.5
148
0
71
0
72
0
73
0
74
1
75
0
76
0
77
0
78
0
79
0
170
0
171
2
172
0
173
0
174
0
175
0
176
0
177
0
178
0
179
0
271
4
272
4
273
2
274
2
275
0
276
0
277
2
278
46
279
0
280
0
281
0
282
0
283
1
284
0
285
0
286
0
288
0
289
3
340
Standard
341

371
-2
372
-2
0
ENDTAB
0
TABLE
2
BLOCK_RECORD
5
1
330
0
100
AcDbSymbolTable
70
2
0
BLOCK_RECORD
5
1F
330
1
100
AcDbSymbolTableRecord
100
AcDbBlockTableRecord
2
*Model_Space
70
0
280
1
281
0
0
BLOCK_RECORD
5
1E
330
1
100
AcDbSymbolTableRecord
100
AcDbBlockTableRecord
2
*Paper_Space
70
0
280
1
281
0
0
BLOCK_RECORD
5
4A
330
1
100
AcDbSymbolTableRecord
100
AcDbBlockTableRecord
2
*D6
70
0
280
1
281
0
0
BLOCK_RECORD
5
4D
330
1
100
AcDbSymbolTableRecord
100
AcDbBlockTableRecord
2
*D8
70
0
280
1
281
0
0
BLOCK_RECORD
5
50
330
1
100
AcDbSymbolTableRecord
100
AcDbBlockTableRecord
2
*D3
70
0
280
1
281
0
0
BLOCK_RECORD
5
53
330
1
100
AcDbSymbolTableRecord
100
AcDbBlockTableRecord
2
*D2
70
0
280
1
281
0
0
BLOCK_RECORD
5
56
330
1
100
AcDbSymbolTableRecord
100
AcDbBlockTableRecord
2
*D7
70
0
280
1
281
0
0
BLOCK_RECORD
5
59
330
1
100
AcDbSymbolTableRecord
100
AcDbBlockTableRecord
2
*D1
70
0
280
1
281
0
0
BLOCK_RECORD
5
5C
330
1
100
AcDbSymbolTableRecord
100
AcDbBlockTableRecord
2
*D10
70
0
280
1
281
0
0
BLOCK_RECORD
5
5F
330
1
100
AcDbSymbolTableRecord
100
AcDbBlockTableRecord
2
*D4
70
0
280
1
281
0
0
BLOCK_RECORD
5
62
330
1
100
AcDbSymbolTableRecord
100
AcDbBlockTableRecord
2
*D9
70
0
280
1
281
0
0
BLOCK_RECORD
5
65
330
1
100
AcDbSymbolTableRecord
100
AcDbBlockTableRecord
2
*D5
70
0
280
1
281
0
0
ENDTAB
0
ENDSEC
0
SECTION
2
BLOCKS
0
BLOCK
5
20
330
1F
100
AcDbEntity
8
0
100
AcDbBlockBegin
2
*Model_Space
70
0
10
0
20
0
30
0
3
*Model_Space
1

0
ENDBLK
5
21
330
1F
100
AcDbEntity
8
0
100
AcDbBlockEnd
0
BLOCK
5
1C
330
1B
100
AcDbEntity
8
0
100
AcDbBlockBegin
2
*Paper_Space
70
0
10
0
20
0
30
0
3
*Paper_Space
1

0
ENDBLK
5
1D
330
1F
100
AcDbEntity
8
0
100
AcDbBlockEnd
0
BLOCK
5
4B
330
4A
100
AcDbEntity
8
0
100
AcDbBlockBegin
2
*D6
70
1
10
0
20
0
3
*D6
1

0
LINE
5
68
100
AcDbEntity
8
dimensions, circle
6
CONTINUOUS
62
7
370
0
100
AcDbLine
10
127.598
20
125.427
11
132.117176598
21
125.427
0
LINE
5
69
100
AcDbEntity
8
dimensions, circle
6
CONTINUOUS
62
7
370
0
100
AcDbLine
10
127.598
20
122.427
11
132.117176598
21
122.427
0
LINE
5
6A
100
AcDbEntity
8
dimensions, circle
6
CONTINUOUS
62
7
370
0
100
AcDbLine
10
132.067176598
20
125.427
11
132.067176598
21
122.427
0
SOLID
5
6B
100
AcDbEntity
8
dimensions, circle
6
CONTINUOUS
62
7
370
0
100
AcDbTrace
10
132.067176598
20
125.427
30
0
11
132.233690461
21
124.427
31
0
12
131.900662735
22
124.427
32
0
13
131.900662735
23
124.427
33
0
0
SOLID
5
6C
100
AcDbEntity
8
dimensions, circle
6
CONTINUOUS
62
7
370
0
100
AcDbTrace
10
132.067176598
20
122.427
30
0
11
131.900662735
21
123.427
31
0
12
132.233690461
22
123.427
32
0
13
132.233690461
23
123.427
33
0
0
MTEXT
5
6D
100
AcDbEntity
8
dimensions, circle
6
CONTINUOUS
62
7
370
0
100
AcDbMText
10
133.067176598
20
127.871444444
30
0
40
1
41
3.88888888889
71
5
72
1
1
3.0000
7
standard
210
0
220
0
230
1
50
90
73
2
44
1
0
ENDBLK
5
4C
330
4A
100
AcDbEntity
8
0
100
AcDbBlockEnd
0
BLOCK
5
4E
330
4D
100
AcDbEntity
8
0
100
AcDbBlockBegin
2
*D8
70
1
10
0
20
0
3
*D8
1

0
LINE
5
6E
100
AcDbEntity
8
dimensions, circle
6
CONTINUOUS
62
7
370
0
100
AcDbLine
10
127.598
20
127.854
11
138.278178765
21
127.854
0
LINE
5
6F
100
AcDbEntity
8
dimensions, circle
6
CONTINUOUS
62
7
370
0
100
AcDbLine
10
127.598
20
120
11
138.278178765
21
120
0
LINE
5
70
100
AcDbEntity
8
dimensions, circle
6
CONTINUOUS
62
7
370
0
100
AcDbLine
10
138.228178765
20
127.854
11
138.228178765
21
120
0
SOLID
5
71
100
AcDbEntity
8
dimensions, circle
6
CONTINUOUS
62
7
370
0
100
AcDbTrace
10
138.228178765
20
127.854
30
0
11
138.394692628
21
126.854
31
0
12
138.061664902
22
126.854
32
0
13
138.061664902
23
126.854
33
0
0
SOLID
5
72
100
AcDbEntity
8
dimensions, circle
6
CONTINUOUS
62
7
370
0
100
AcDbTrace
10
138.228178765
20
120
30
0
11
138.061664902
21
121
31
0
12
138.394692628
22
121
32
0
13
138.394692628
23
121
33
0
0
MTEXT
5
73
100
AcDbEntity
8
dimensions, circle
6
CONTINUOUS
62
7
370
0
100
AcDbMText
10
139.228178765
20
123.927
30
0
40
1
41
4
71
5
72
1
1
7.8540
7
standard
210
0
220
0
230
1
50
90
73
2
44
1
0
ENDBLK
5
4F
330
4D
100
AcDbEntity
8
0
100
AcDbBlockEnd
0
BLOCK
5
51
330
50
100
AcDbEntity
8
0
100
AcDbBlockBegin
2
*D3
70
1
10
0
20
0
3
*D3
1

0
LINE
5
74
100
AcDbEntity
8
__z, dimensions, lengths
6
CONTINUOUS
62
7
370
0
100
AcDbLine
10
127.598
20
103.927
11
135.259526514
21
103.927
0
LINE
5
75
100
AcDbEntity
8
__z, dimensions, lengths
6
CONTINUOUS
62
7
370
0
100
AcDbLine
10
127.598
20
88.677
11
135.259526514
21
88.677
0
LINE
5
76
100
AcDbEntity
8
__z, dimensions, lengths
6
CONTINUOUS
62
7
370
0
100
AcDbLine
10
135.209526514
20
103.927
11
135.209526514
21
88.677
0
SOLID
5
77
100
AcDbEntity
8
__z, dimensions, lengths
6
CONTINUOUS
62
7
370
0
100
AcDbTrace
10
135.209526514
20
103.927
30
0
11
135.376040377
21
102.927
31
0
12
135.043012651
22
102.927
32
0
13
135.043012651
23
102.927
33
0
0
SOLID
5
78
100
AcDbEntity
8
__z, dimensions, lengths
6
CONTINUOUS
62
7
370
0
100
AcDbTrace
10
135.209526514
20
88.677
30
0
11
135.043012651
21
89.677
31
0
12
135.376040377
22
89.677
32
0
13
135.376040377
23
89.677
33
0
0
MTEXT
5
79
100
AcDbEntity
8
__z, dimensions, lengths
6
CONTINUOUS
62
7
370
0
100
AcDbMText
10
136.209526514
20
96.302
30
0
40
1
41
4.44444444444
71
5
72
1
1
15.2500
7
standard
210
0
220
0
230
1
50
90
73
2
44
1
0
ENDBLK
5
52
330
50
100
AcDbEntity
8
0
100
AcDbBlockEnd
0
BLOCK
5
54
330
53
100
AcDbEntity
8
0
100
AcDbBlockBegin
2
*D2
70
1
10
0
20
0
3
*D2
1

0
LINE
5
7A
100
AcDbEntity
8
__z, dimensions, lengths
6
CONTINUOUS
62
7
370
0
100
AcDbLine
10
127.598
20
103.927
11
132.097309486
21
103.927
0
LINE
5
7B
100
AcDbEntity
8
__z, dimensions, lengths
6
CONTINUOUS
62
7
370
0
100
AcDbLine
10
127.598
20
94.502
11
132.097309486
21
94.502
0
LINE
5
7C
100
AcDbEntity
8
__z, dimensions, lengths
6
CONTINUOUS
62
7
370
0
100
AcDbLine
10
132.047309486
20
103.927
11
132.047309486
21
94.502
0
SOLID
5
7D
100
AcDbEntity
8
__z, dimensions, lengths
6
CONTINUOUS
62
7
370
0
100
AcDbTrace
10
132.047309486
20
103.927
30
0
11
132.213823349
21
102.927
31
0
12
131.880795623
22
102.927
32
0
13
131.880795623
23
102.927
33
0
0
SOLID
5
7E
100
AcDbEntity
8
__z, dimensions, lengths
6
CONTINUOUS
62
7
370
0
100
AcDbTrace
10
132.047309486
20
94.502
30
0
11
131.880795623
21
95.502
31
0
12
132.213823349
22
95.502
32
0
13
132.213823349
23
95.502
33
0
0
MTEXT
5
7F
100
AcDbEntity
8
__z, dimensions, lengths
6
CONTINUOUS
62
7
370
0
100
AcDbMText
10
133.047309486
20
99.2145
30
0
40
1
41
4
71
5
72
1
1
9.4250
7
standard
210
0
220
0
230
1
50
90
73
2
44
1
0
ENDBLK
5
55
330
53
100
AcDbEntity
8
0
100
AcDbBlockEnd
0
BLOCK
5
57
330
56
100
AcDbEntity
8
0
100
AcDbBlockBegin
2
*D7
70
1
10
0
20
0
3
*D7
1

0
LINE
5
80
100
AcDbEntity
8
dimensions, circle
6
CONTINUOUS
62
7
370
0
100
AcDbLine
10
127.598
20
126.354
11
135.235708559
21
126.354
0
LINE
5
81
100
AcDbEntity
8
dimensions, circle
6
CONTINUOUS
62
7
370
0
100
AcDbLine
10
127.598
20
121.5
11
135.235708559
21
121.5
0
LINE
5
82
100
AcDbEntity
8
dimensions, circle
6
CONTINUOUS
62
7
370
0
100
AcDbLine
10
135.185708559
20
126.354
11
135.185708559
21
121.5
0
SOLID
5
83
100
AcDbEntity
8
dimensions, circle
6
CONTINUOUS
62
7
370
0
100
AcDbTrace
10
135.185708559
20
126.354
30
0
11
135.352222422
21
125.354
31
0
12
135.019194696
22
125.354
32
0
13
135.019194696
23
125.354
33
0
0
SOLID
5
84
100
AcDbEntity
8
dimensions, circle
6
CONTINUOUS
62
7
370
0
100
AcDbTrace
10
135.185708559
20
121.5
30
0
11
135.019194696
21
122.5
31
0
12
135.352222422
22
122.5
32
0
13
135.352222422
23
122.5
33
0
0
MTEXT
5
85
100
AcDbEntity
8
dimensions, circle
6
CONTINUOUS
62
7
370
0
100
AcDbMText
10
136.185708559
20
123.927
30
0
40
1
41
4.11111111111
71
5
72
1
1
4.8540
7
standard
210
0
220
0
230
1
50
90
73
2
44
1
0
ENDBLK
5
58
330
56
100
AcDbEntity
8
0
100
AcDbBlockEnd
0
BLOCK
5
5A
330
59
100
AcDbEntity
8
0
100
AcDbBlockBegin
2
*D1
70
1
10
0
20
0
3
*D1
1

0
LINE
5
86
100
AcDbEntity
8
__z, dimensions, lengths
6
CONTINUOUS
62
7
370
0
100
AcDbLine
10
127.598
20
103.927
11
129.014147884
21
103.927
0
LINE
5
87
100
AcDbEntity
8
__z, dimensions, lengths
6
CONTINUOUS
62
7
370
0
100
AcDbLine
10
127.598
20
98.102
11
129.014147884
21
98.102
0
LINE
5
88
100
AcDbEntity
8
__z, dimensions, lengths
6
CONTINUOUS
62
7
370
0
100
AcDbLine
10
128.964147884
20
103.927
11
128.964147884
21
98.102
0
SOLID
5
89
100
AcDbEntity
8
__z, dimensions, lengths
6
CONTINUOUS
62
7
370
0
100
AcDbTrace
10
128.964147884
20
103.927
30
0
11
129.130661747
21
102.927
31
0
12
128.797634021
22
102.927
32
0
13
128.797634021
23
102.927
33
0
0
SOLID
5
8A
100
AcDbEntity
8
__z, dimensions, lengths
6
CONTINUOUS
62
7
370
0
100
AcDbTrace
10
128.964147884
20
98.102
30
0
11
128.797634021
21
99.102
31
0
12
129.130661747
22
99.102
32
0
13
129.130661747
23
99.102
33
0
0
MTEXT
5
8B
100
AcDbEntity
8
__z, dimensions, lengths
6
CONTINUOUS
62
7
370
0
100
AcDbMText
10
129.964147884
20
101.0145
30
0
40
1
41
3.88888888889
71
5
72
1
1
5.8250
7
standard
210
0
220
0
230
1
50
90
73
2
44
1
0
ENDBLK
5
5B
330
59
100
AcDbEntity
8
0
100
AcDbBlockEnd
0
BLOCK
5
5D
330
5C
100
AcDbEntity
8
0
100
AcDbBlockBegin
2
*D10
70
1
10
0
20
0
3
*D10
1

0
LINE
5
8C
100
AcDbEntity
8
dimensions, circle
6
CONTINUOUS
62
7
370
0
100
AcDbLine
10
127.598
20
134.208
11
144.895551463
21
134.208
0
LINE
5
8D
100
AcDbEntity
8
dimensions, circle
6
CONTINUOUS
62
7
370
0
100
AcDbLine
10
127.598
20
113.646
11
144.895551463
21
113.646
0
LINE
5
8E
100
AcDbEntity
8
dimensions, circle
6
CONTINUOUS
62
7
370
0
100
AcDbLine
10
144.845551463
20
134.208
11
144.845551463
21
113.646
0
SOLID
5
8F
100
AcDbEntity
8
dimensions, circle
6
CONTINUOUS
62
7
370
0
100
AcDbTrace
10
144.845551463
20
134.208
30
0
11
145.012065326
21
133.208
31
0
12
144.6790376
22
133.208
32
0
13
144.6790376
23
133.208
33
0
0
SOLID
5
90
100
AcDbEntity
8
dimensions, circle
6
CONTINUOUS
62
7
370
0
100
AcDbTrace
10
144.845551463
20
113.646
30
0
11
144.6790376
21
114.646
31
0
12
145.012065326
22
114.646
32
0
13
145.012065326
23
114.646
33
0
0
MTEXT
5
91
100
AcDbEntity
8
dimensions, circle
6
CONTINUOUS
62
7
370
0
100
AcDbMText
10
145.845551463
20
123.927
30
0
40
1
41
4.66666666667
71
5
72
1
1
20.5620
7
standard
210
0
220
0
230
1
50
90
73
2
44
1
0
ENDBLK
5
5E
330
5C
100
AcDbEntity
8
0
100
AcDbBlockEnd
0
BLOCK
5
60
330
5F
100
AcDbEntity
8
0
100
AcDbBlockBegin
2
*D4
70
1
10
0
20
0
3
*D4
1

0
LINE
5
92
100
AcDbEntity
8
__z, dimensions, lengths
6
CONTINUOUS
62
7
370
0
100
AcDbLine
10
127.598
20
103.927
11
138.26363269
21
103.927
0
LINE
5
93
100
AcDbEntity
8
__z, dimensions, lengths
6
CONTINUOUS
62
7
370
0
100
AcDbLine
10
127.598
20
79.253
11
138.26363269
21
79.253
0
LINE
5
94
100
AcDbEntity
8
__z, dimensions, lengths
6
CONTINUOUS
62
7
370
0
100
AcDbLine
10
138.21363269
20
103.927
11
138.21363269
21
79.253
0
SOLID
5
95
100
AcDbEntity
8
__z, dimensions, lengths
6
CONTINUOUS
62
7
370
0
100
AcDbTrace
10
138.21363269
20
103.927
30
0
11
138.380146553
21
102.927
31
0
12
138.047118827
22
102.927
32
0
13
138.047118827
23
102.927
33
0
0
SOLID
5
96
100
AcDbEntity
8
__z, dimensions, lengths
6
CONTINUOUS
62
7
370
0
100
AcDbTrace
10
138.21363269
20
79.253
30
0
11
138.047118827
21
80.253
31
0
12
138.380146553
22
80.253
32
0
13
138.380146553
23
80.253
33
0
0
MTEXT
5
97
100
AcDbEntity
8
__z, dimensions, lengths
6
CONTINUOUS
62
7
370
0
100
AcDbMText
10
139.21363269
20
91.59
30
0
40
1
41
4.88888888889
71
5
72
1
1
24.6740
7
standard
210
0
220
0
230
1
50
90
73
2
44
1
0
ENDBLK
5
61
330
5F
100
AcDbEntity
8
0
100
AcDbBlockEnd
0
BLOCK
5
63
330
62
100
AcDbEntity
8
0
100
AcDbBlockBegin
2
*D9
70
1
10
0
20
0
3
*D9
1

0
LINE
5
98
100
AcDbEntity
8
dimensions, circle
6
CONTINUOUS
62
7
370
0
100
AcDbLine
10
127.598
20
130.281
11
141.472772481
21
130.281
0
LINE
5
99
100
AcDbEntity
8
dimensions, circle
6
CONTINUOUS
62
7
370
0
100
AcDbLine
10
127.598
20
117.573
11
141.472772481
21
117.573
0
LINE
5
9A
100
AcDbEntity
8
dimensions, circle
6
CONTINUOUS
62
7
370
0
100
AcDbLine
10
141.422772481
20
130.281
11
141.422772481
21
117.573
0
SOLID
5
9B
100
AcDbEntity
8
dimensions, circle
6
CONTINUOUS
62
7
370
0
100
AcDbTrace
10
141.422772481
20
130.281
30
0
11
141.589286344
21
129.281
31
0
12
141.256258618
22
129.281
32
0
13
141.256258618
23
129.281
33
0
0
SOLID
5
9C
100
AcDbEntity
8
dimensions, circle
6
CONTINUOUS
62
7
370
0
100
AcDbTrace
10
141.422772481
20
117.573
30
0
11
141.256258618
21
118.573
31
0
12
141.589286344
22
118.573
32
0
13
141.589286344
23
118.573
33
0
0
MTEXT
5
9D
100
AcDbEntity
8
dimensions, circle
6
CONTINUOUS
62
7
370
0
100
AcDbMText
10
142.422772481
20
123.927
30
0
40
1
41
4.44444444444
71
5
72
1
1
12.7080
7
standard
210
0
220
0
230
1
50
90
73
2
44
1
0
ENDBLK
5
64
330
62
100
AcDbEntity
8
0
100
AcDbBlockEnd
0
BLOCK
5
66
330
65
100
AcDbEntity
8
0
100
AcDbBlockBegin
2
*D5
70
1
10
0
20
0
3
*D5
1

0
LINE
5
9E
100
AcDbEntity
8
__z, dimensions, lengths
6
CONTINUOUS
62
7
370
0
100
AcDbLine
10
127.598
20
103.927
11
141.504905143
21
103.927
0
LINE
5
9F
100
AcDbEntity
8
__z, dimensions, lengths
6
CONTINUOUS
62
7
370
0
100
AcDbLine
10
127.598
20
64.003
11
141.504905143
21
64.003
0
LINE
5
A0
100
AcDbEntity
8
__z, dimensions, lengths
6
CONTINUOUS
62
7
370
0
100
AcDbLine
10
141.454905143
20
103.927
11
141.454905143
21
64.003
0
SOLID
5
A1
100
AcDbEntity
8
__z, dimensions, lengths
6
CONTINUOUS
62
7
370
0
100
AcDbTrace
10
141.454905143
20
103.927
30
0
11
141.621419006
21
102.927
31
0
12
141.28839128
22
102.927
32
0
13
141.28839128
23
102.927
33
0
0
SOLID
5
A2
100
AcDbEntity
8
__z, dimensions, lengths
6
CONTINUOUS
62
7
370
0
100
AcDbTrace
10
141.454905143
20
64.003
30
0
11
141.28839128
21
65.003
31
0
12
141.621419006
22
65.003
32
0
13
141.621419006
23
65.003
33
0
0
MTEXT
5
A3
100
AcDbEntity
8
__z, dimensions, lengths
6
CONTINUOUS
62
7
370
0
100
AcDbMText
10
142.454905143
20
83.965
30
0
40
1
41
4.77777777778
71
5
72
1
1
39.9240
7
standard
210
0
220
0
230
1
50
90
73
2
44
1
0
ENDBLK
5
67
330
65
100
AcDbEntity
8
0
100
AcDbBlockEnd
0
ENDSEC
0
SECTION
2
ENTITIES
0
LINE
5
A4
100
AcDbEntity
8
offsets
6
ByLayer
62
256
370
-1
100
AcDbLine
10
159.924
20
101.5
11
159.924
21
111.5
0
LINE
5
A5
100
AcDbEntity
8
offsets
6
ByLayer
62
256
370
-1
100
AcDbLine
10
144.674
20
101.5
11
144.674
21
111.5
0
LINE
5
A6
100
AcDbEntity
8
offsets
6
ByLayer
62
256
370
-1
100
AcDbLine
10
135.25
20
101.5
11
135.25
21
111.5
0
LINE
5
A7
100
AcDbEntity
8
offsets
6
ByLayer
62
256
370
-1
100
AcDbLine
10
129.425
20
101.5
11
129.425
21
111.5
0
LINE
5
A8
100
AcDbEntity
8
offsets
6
ByLayer
62
256
370
-1
100
AcDbLine
10
125.825
20
101.5
11
125.825
21
111.5
0
LINE
5
A9
100
AcDbEntity
8
offsets
6
ByLayer
62
256
370
-1
100
AcDbLine
10
120
20
101.5
11
120
21
111.5
0
LINE
5
AA
100
AcDbEntity
8
offsets
6
ByLayer
62
256
370
-1
100
AcDbLine
10
120
20
111.5
11
83
21
111.5
0
LINE
5
AB
100
AcDbEntity
8
offsets
6
ByLayer
62
256
370
-1
100
AcDbLine
10
81.5
20
100
11
118.5
21
100
0
LINE
5
AC
100
AcDbEntity
8
offsets
6
ByLayer
62
256
370
-1
100
AcDbLine
10
110.281
20
111.5
11
110.281
21
100
0
LINE
5
AD
100
AcDbEntity
8
offsets
6
ByLayer
62
256
370
-1
100
AcDbLine
10
106.354
20
111.5
11
106.354
21
100
0
LINE
5
AE
100
AcDbEntity
8
offsets
6
ByLayer
62
256
370
-1
100
AcDbLine
10
103.927
20
111.5
11
103.927
21
100
0
LINE
5
AF
100
AcDbEntity
8
offsets
6
ByLayer
62
256
370
-1
100
AcDbLine
10
102.427
20
111.5
11
102.427
21
100
0
LINE
5
B0
100
AcDbEntity
8
offsets
6
ByLayer
62
256
370
-1
100
AcDbLine
10
101.5
20
111.5
11
101.5
21
100
0
LINE
5
B1
100
AcDbEntity
8
offsets
6
ByLayer
62
256
370
-1
100
AcDbLine
10
98.5
20
111.5
11
98.5
21
100
0
LINE
5
B2
100
AcDbEntity
8
offsets
6
ByLayer
62
256
370
-1
100
AcDbLine
10
97.573
20
111.5
11
97.573
21
100
0
LINE
5
B3
100
AcDbEntity
8
offsets
6
ByLayer
62
256
370
-1
100
AcDbLine
10
96.073
20
111.5
11
96.073
21
100
0
LINE
5
B4
100
AcDbEntity
8
offsets
6
ByLayer
62
256
370
-1
100
AcDbLine
10
93.646
20
111.5
11
93.646
21
100
0
LINE
5
B5
100
AcDbEntity
8
offsets
6
ByLayer
62
256
370
-1
100
AcDbLine
10
89.719
20
111.5
11
89.719
21
100
0
CIRCLE
5
B6
100
AcDbEntity
8
0
6
ByLayer
62
256
370
-1
100
AcDbCircle
10
116.073
20
123.927
40
1.5
0
CIRCLE
5
B7
100
AcDbEntity
8
0
6
ByLayer
62
256
370
-1
100
AcDbCircle
10
116.073
20
123.927
40
2.427
0
CIRCLE
5
B8
100
AcDbEntity
8
0
6
ByLayer
62
256
370
-1
100
AcDbCircle
10
116.073
20
123.927
40
3.927
0
CIRCLE
5
B9
100
AcDbEntity
8
0
6
ByLayer
62
256
370
-1
100
AcDbCircle
10
116.073
20
123.927
40
6.354
0
CIRCLE
5
BA
100
AcDbEntity
8
split ring
6
ByLayer
62
256
370
-1
100
AcDbCircle
10
116.073
20
123.927
40
10.281
0
LINE
5
BB
100
AcDbEntity
8
split ring
6
ByLayer
62
256
370
-1
100
AcDbLine
10
126.354
20
103.927
11
105.792
21
103.927
0
LINE
5
BC
100
AcDbEntity
8
0
6
ByLayer
62
256
370
-1
100
AcDbLine
10
122.427
20
94.502
11
109.719
21
94.502
0
LINE
5
BD
100
AcDbEntity
8
0
6
ByLayer
62
256
370
-1
100
AcDbLine
10
122.427
20
103.927
11
122.427
21
94.502
0
LINE
5
BE
100
AcDbEntity
8
0
6
ByLayer
62
256
370
-1
100
AcDbLine
10
109.719
20
103.927
11
109.719
21
94.502
0
LINE
5
BF
100
AcDbEntity
8
0
6
ByLayer
62
256
370
-1
100
AcDbLine
10
120
20
88.677
11
112.146
21
88.677
0
LINE
5
C0
100
AcDbEntity
8
0
6
ByLayer
62
256
370
-1
100
AcDbLine
10
120
20
103.927
11
120
21
88.677
0
LINE
5
C1
100
AcDbEntity
8
0
6
ByLayer
62
256
370
-1
100
AcDbLine
10
112.146
20
103.927
11
112.146
21
88.677
0
LINE
5
C2
100
AcDbEntity
8
0
6
ByLayer
62
256
370
-1
100
AcDbLine
10
118.5
20
79.253
11
113.646
21
79.253
0
LINE
5
C3
100
AcDbEntity
8
0
6
ByLayer
62
256
370
-1
100
AcDbLine
10
118.5
20
103.927
11
118.5
21
79.253
0
LINE
5
C4
100
AcDbEntity
8
0
6
ByLayer
62
256
370
-1
100
AcDbLine
10
113.646
20
103.927
11
113.646
21
79.253
0
LINE
5
C5
100
AcDbEntity
8
0
6
ByLayer
62
256
370
-1
100
AcDbLine
10
117.573
20
64.003
11
114.573
21
64.003
0
LINE
5
C6
100
AcDbEntity
8
0
6
ByLayer
62
256
370
-1
100
AcDbLine
10
117.573
20
103.927
11
117.573
21
64.003
0
LINE
5
C7
100
AcDbEntity
8
0
6
ByLayer
62
256
370
-1
100
AcDbLine
10
114.573
20
103.927
11
114.573
21
64.003
0
LINE
5
C8
100
AcDbEntity
8
split ring
6
ByLayer
62
256
370
-1
100
AcDbLine
10
126.354
20
98.102
11
105.792
21
98.102
0
LINE
5
C9
100
AcDbEntity
8
split ring
6
ByLayer
62
256
370
-1
100
AcDbLine
10
126.354
20
103.927
11
126.354
21
98.102
0
LINE
5
CA
100
AcDbEntity
8
split ring
6
ByLayer
62
256
370
-1
100
AcDbLine
10
105.792
20
103.927
11
105.792
21
98.102
0
DIMENSION
5
CB
100
AcDbEntity
8
__z, dimensions, lengths
6
ByLayer
62
256
370
-1
100
AcDbDimension
2
*D1
10
128.964147884
20
98.102
30
0
11
129.964147884
21
101.0145
31
0
70
33
71
5
72
0
3
Standard
53
0
210
0
220
0
230
1
100
AcDbAlignedDimension
13
127.573
23
103.927
33
0
14
127.573
24
98.102
34
0
0
DIMENSION
5
CC
100
AcDbEntity
8
__z, dimensions, lengths
6
ByLayer
62
256
370
-1
100
AcDbDimension
2
*D2
10
132.047309486
20
94.502
30
0
11
133.047309486
21
99.2145
31
0
70
33
71
5
72
0
3
Standard
53
0
210
0
220
0
230
1
100
AcDbAlignedDimension
13
127.573
23
103.927
33
0
14
127.573
24
94.502
34
0
0
DIMENSION
5
CD
100
AcDbEntity
8
__z, dimensions, lengths
6
ByLayer
62
256
370
-1
100
AcDbDimension
2
*D3
10
135.209526514
20
88.677
30
0
11
136.209526514
21
96.302
31
0
70
33
71
5
72
0
3
Standard
53
0
210
0
220
0
230
1
100
AcDbAlignedDimension
13
127.573
23
103.927
33
0
14
127.573
24
88.677
34
0
0
DIMENSION
5
CE
100
AcDbEntity
8
__z, dimensions, lengths
6
ByLayer
62
256
370
-1
100
AcDbDimension
2
*D4
10
138.21363269
20
79.253
30
0
11
139.21363269
21
91.59
31
0
70
33
71
5
72
0
3
Standard
53
0
210
0
220
0
230
1
100
AcDbAlignedDimension
13
127.573
23
103.927
33
0
14
127.573
24
79.253
34
0
0
DIMENSION
5
CF
100
AcDbEntity
8
__z, dimensions, lengths
6
ByLayer
62
256
370
-1
100
AcDbDimension
2
*D5
10
141.454905143
20
64.003
30
0
11
142.454905143
21
83.965
31
0
70
33
71
5
72
0
3
Standard
53
0
210
0
220
0
230
1
100
AcDbAlignedDimension
13
127.573
23
103.927
33
0
14
127.573
24
64.003
34
0
0
DIMENSION
5
D0
100
AcDbEntity
8
dimensions, circle
6
ByLayer
62
256
370
-1
100
AcDbDimension
2
*D6
10
132.067176598
20
122.427
30
0
11
133.067176598
21
123.927
31
0
70
33
71
5
72
0
3
Standard
53
0
210
0
220
0
230
1
100
AcDbAlignedDimension
13
127.573
23
125.427
33
0
14
127.573
24
122.427
34
0
0
DIMENSION
5
D1
100
AcDbEntity
8
dimensions, circle
6
ByLayer
62
256
370
-1
100
AcDbDimension
2
*D7
10
135.185708559
20
121.5
30
0
11
136.185708559
21
123.927
31
0
70
33
71
5
72
0
3
Standard
53
0
210
0
220
0
230
1
100
AcDbAlignedDimension
13
127.573
23
126.354
33
0
14
127.573
24
121.5
34
0
0
DIMENSION
5
D2
100
AcDbEntity
8
dimensions, circle
6
ByLayer
62
256
370
-1
100
AcDbDimension
2
*D8
10
138.228178765
20
120
30
0
11
139.228178765
21
123.927
31
0
70
33
71
5
72
0
3
Standard
53
0
210
0
220
0
230
1
100
AcDbAlignedDimension
13
127.573
23
127.854
33
0
14
127.573
24
120
34
0
0
DIMENSION
5
D3
100
AcDbEntity
8
dimensions, circle
6
ByLayer
62
256
370
-1
100
AcDbDimension
2
*D9
10
141.422772481
20
117.573
30
0
11
142.422772481
21
123.927
31
0
70
33
71
5
72
0
3
Standard
53
0
210
0
220
0
230
1
100
AcDbAlignedDimension
13
127.573
23
130.281
33
0
14
127.573
24
117.573
34
0
0
DIMENSION
5
D4
100
AcDbEntity
8
dimensions, circle
6
ByLayer
62
256
370
-1
100
AcDbDimension
2
*D10
10
144.845551463
20
113.646
30
0
11
145.845551463
21
123.927
31
0
70
33
71
5
72
0
3
Standard
53
0
210
0
220
0
230
1
100
AcDbAlignedDimension
13
127.573
23
134.208
33
0
14
127.573
24
113.646
34
0
0
ENDSEC
0
SECTION
2
OBJECTS
0
DICTIONARY
5
C
330
0
100
AcDbDictionary
281
1
3
ACAD_GROUP
350
D
0
DICTIONARY
5
D
330
C
100
AcDbDictionary
281
1
0
ENDSEC
0
EOF
