999
dxfrw 0.6.3
  0
SECTION
  2
HEADER
  9
$ACADVER
  1
AC1021
  9
$DWGCODEPAGE
  3
ANSI_1252
  9
$INSBASE
 10
0
 20
0
 30
0
  9
$EXTMIN
 10
28.25
 20
-12.99393359413431
 30
0
  9
$EXTMAX
 10
175.8325693155457
 20
222.5828157299974
 30
0
  9
$LIMMIN
 10
0
 20
0
  9
$LIMMAX
 10
420
 20
297
  9
$ORTHOMODE
 70
    0
  9
$REGENMODE
 70
    1
  9
$FILLMODE
 70
    1
  9
$QTEXTMODE
 70
    0
  9
$MIRRTEXT
 70
    0
  9
$LTSCALE
 40
1
  9
$ATTMODE
 70
    0
  9
$TEXTSIZE
 40
2.5
  9
$TRACEWID
 40
15.68
  9
$TEXTSTYLE
  7
STANDARD
  9
$CLAYER
  8
anchors
  9
$CELTYPE
  6
BYLAYER
  9
$CECOLOR
 62
  256
  9
$CELTSCALE
 40
1
  9
$DISPSILH
 70
    0
  9
$DIMSCALE
 40
1
  9
$DIMASZ
 40
5
  9
$DIMEXO
 40
1
  9
$DIMDLI
 40
3.75
  9
$DIMRND
 40
0
  9
$DIMDLE
 40
0
  9
$DIMEXE
 40
0.05
  9
$DIMTP
 40
0
  9
$DIMTM
 40
0
  9
$DIMTXT
 40
2
  9
$DIMCEN
 40
2.5
  9
$DIMTSZ
 40
0
  9
$DIMTOL
 70
    0
  9
$DIMLIM
 70
    0
  9
$DIMTIH
 70
    0
  9
$DIMTOH
 70
    0
  9
$DIMSE1
 70
    0
  9
$DIMSE2
 70
    0
  9
$DIMTAD
 70
    1
  9
$DIMZIN
 70
    8
  9
$DIMBLK
  1

  9
$DIMASO
 70
    1
  9
$DIMSHO
 70
    1
  9
$DIMPOST
  1

  9
$DIMAPOST
  1

  9
$DIMALT
 70
    0
  9
$DIMALTD
 70
    3
  9
$DIMALTF
 40
0.03937
  9
$DIMLFAC
 40
1
  9
$DIMTOFL
 70
    1
  9
$DIMTVP
 40
0
  9
$DIMTIX
 70
    0
  9
$DIMSOXD
 70
    0
  9
$DIMSAH
 70
    0
  9
$DIMBLK1
  1

  9
$DIMBLK2
  1

  9
$DIMSTYLE
  2
STANDARD
  9
$DIMCLRD
 70
    0
  9
$DIMCLRE
 70
    0
  9
$DIMCLRT
 70
    0
  9
$DIMTFAC
 40
1
  9
$DIMGAP
 40
1
  9
$DIMJUST
 70
    0
  9
$DIMSD1
 70
    0
  9
$DIMSD2
 70
    0
  9
$DIMTOLJ
 70
    0
  9
$DIMTZIN
 70
    8
  9
$DIMALTZ
 70
    0
  9
$DIMALTTZ
 70
    0
  9
$DIMUPT
 70
    0
  9
$DIMDEC
 70
    2
  9
$DIMTDEC
 70
    2
  9
$DIMALTU
 70
    2
  9
$DIMALTTD
 70
    3
  9
$DIMTXSTY
  7
standard
  9
$DIMAUNIT
 70
    0
  9
$DIMADEC
 70
    0
  9
$DIMALTRND
 40
0
  9
$DIMAZIN
 70
    0
  9
$DIMDSEP
 70
    0
  9
$DIMATFIT
 70
    3
  9
$DIMFRAC
 70
    0
  9
$DIMLDRBLK
  1
STANDARD
  9
$DIMLUNIT
 70
    2
  9
$DIMLWD
 70
   -2
  9
$DIMLWE
 70
   -2
  9
$DIMTMOVE
 70
    0
  9
$DIMFXL
 40
1
  9
$DIMFXLON
 70
    0
  9
$DIMJOGANG
 40
0.7854
  9
$DIMTFILL
 70
    0
  9
$DIMTFILLCLR
 70
    0
  9
$DIMARCSYM
 70
    0
  9
$DIMLTYPE
  6

  9
$DIMLTEX1
  6

  9
$DIMLTEX2
  6

  9
$LUNITS
 70
    2
  9
$LUPREC
 70
    4
  9
$SKETCHINC
 40
1
  9
$FILLETRAD
 40
0
  9
$AUNITS
 70
    0
  9
$AUPREC
 70
    2
  9
$MENU
  1
.
  9
$ELEVATION
 40
0
  9
$PELEVATION
 40
0
  9
$THICKNESS
 40
0
  9
$LIMCHECK
 70
    0
  9
$CHAMFERA
 40
0
  9
$CHAMFERB
 40
0
  9
$CHAMFERC
 40
0
  9
$CHAMFERD
 40
0
  9
$SKPOLY
 70
    0
  9
$USRTIMER
 70
    1
  9
$ANGBASE
 50
0
  9
$ANGDIR
 70
    0
  9
$PDMODE
 70
   34
  9
$PDSIZE
 40
0
  9
$PLINEWID
 40
0
  9
$SPLFRAME
 70
    0
  9
$SPLINETYPE
 70
    2
  9
$SPLINESEGS
 70
    8
  9
$HANDSEED
  5
20000
  9
$SURFTAB1
 70
    6
  9
$SURFTAB2
 70
    6
  9
$SURFTYPE
 70
    6
  9
$SURFU
 70
    6
  9
$SURFV
 70
    6
  9
$UCSBASE
  2

  9
$UCSNAME
  2

  9
$UCSORG
 10
0
 20
0
 30
0
  9
$UCSXDIR
 10
1
 20
0
 30
0
  9
$UCSYDIR
 10
0
 20
1
 30
0
  9
$UCSORTHOREF
  2

  9
$UCSORTHOVIEW
 70
    0
  9
$UCSORGTOP
 10
0
 20
0
 30
0
  9
$UCSORGBOTTOM
 10
0
 20
0
 30
0
  9
$UCSORGLEFT
 10
0
 20
0
 30
0
  9
$UCSORGRIGHT
 10
0
 20
0
 30
0
  9
$UCSORGFRONT
 10
0
 20
0
 30
0
  9
$UCSORGBACK
 10
0
 20
0
 30
0
  9
$PUCSBASE
  2

  9
$PUCSNAME
  2

  9
$PUCSORG
 10
0
 20
0
 30
0
  9
$PUCSXDIR
 10
1
 20
0
 30
0
  9
$PUCSYDIR
 10
0
 20
1
 30
0
  9
$PUCSORTHOREF
  2

  9
$PUCSORTHOVIEW
 70
    0
  9
$PUCSORGTOP
 10
0
 20
0
 30
0
  9
$PUCSORGBOTTOM
 10
0
 20
0
 30
0
  9
$PUCSORGLEFT
 10
0
 20
0
 30
0
  9
$PUCSORGRIGHT
 10
0
 20
0
 30
0
  9
$PUCSORGFRONT
 10
0
 20
0
 30
0
  9
$PUCSORGBACK
 10
0
 20
0
 30
0
  9
$USERI1
 70
    0
  9
$USERI2
 70
    0
  9
$USERI3
 70
    0
  9
$USERI4
 70
    0
  9
$USERI5
 70
    0
  9
$USERR1
 40
0
  9
$USERR2
 40
0
  9
$USERR3
 40
0
  9
$USERR4
 40
0
  9
$USERR5
 40
0
  9
$WORLDVIEW
 70
    1
  9
$SHADEDGE
 70
    3
  9
$SHADEDIF
 70
   70
  9
$TILEMODE
 70
    1
  9
$MAXACTVP
 70
   64
  9
$PINSBASE
 10
2.244514955324476
 20
0.9066793351734362
 30
0
  9
$PLIMCHECK
 70
    0
  9
$PEXTMIN
 10
0
 20
0
 30
0
  9
$PEXTMAX
 10
0
 20
0
 30
0
  9
$GRIDMODE
 70
    1
  9
$SNAPSTYLE
 70
    1
  9
$GRIDUNIT
 10
0
 20
0
  9
$PLIMMIN
 10
0
 20
0
  9
$PLIMMAX
 10
11
 20
8.5
  9
$UNITMODE
 70
    0
  9
$VISRETAIN
 70
    1
  9
$PLINEGEN
 70
    0
  9
$PSLTSCALE
 70
    1
  9
$TREEDEPTH
 70
 3020
  9
$CMLSTYLE
  2
Standard
  9
$CMLJUST
 70
    0
  9
$CMLSCALE
 40
20
  9
$PROXYGRAPHICS
 70
    1
  9
$MEASUREMENT
 70
    1
  9
$CELWEIGHT
370
   -1
  9
$ENDCAPS
280
    0
  9
$JOINSTYLE
280
    0
  9
$LWDISPLAY
290
    0
  9
$INSUNITS
 70
    1
  9
$HYPERLINKBASE
  1

  9
$STYLESHEET
  1

  9
$XEDIT
290
    1
  9
$CEPSNTYPE
380
    0
  9
$PSTYLEMODE
290
    1
  9
$EXTNAMES
290
    1
  9
$PSVPSCALE
 40
0.031903625528005
  9
$OLESTARTUP
290
    0
  9
$SORTENTS
280
  127
  9
$INDEXCTL
280
    0
  9
$HIDETEXT
280
    1
  9
$XCLIPFRAME
290
    0
  9
$HALOGAP
280
    0
  9
$OBSCOLOR
 70
  257
  9
$OBSLTYPE
280
    0
  9
$INTERSECTIONDISPLAY
280
    0
  9
$INTERSECTIONCOLOR
 70
  257
  9
$DIMASSOC
280
    1
  9
$PROJECTNAME
  1

  9
$CAMERADISPLAY
290
    0
  9
$LENSLENGTH
 40
50
  9
$CAMERAHEIGHT
 40
0
  9
$STEPSPERSEC
 40
2
  9
$STEPSIZE
 40
50
  9
$3DDWFPREC
 40
2
  9
$PSOLWIDTH
 40
5
  9
$PSOLHEIGHT
 40
80
  9
$LOFTANG1
 40
1.570796326794897
  9
$LOFTANG2
 40
1.570796326794897
  9
$LOFTMAG1
 40
0
  9
$LOFTMAG2
 40
0
  9
$LOFTPARAM
 70
    7
  9
$LOFTNORMALS
280
    1
  9
$LATITUDE
 40
1
  9
$LONGITUDE
 40
1
  9
$NORTHDIRECTION
 40
0
  9
$TIMEZONE
 70
-8000
  9
$LIGHTGLYPHDISPLAY
280
    1
  9
$TILEMODELIGHTSYNCH
280
    1
  9
$SOLIDHIST
280
    1
  9
$SHOWHIST
280
    1
  9
$DWFFRAME
280
    2
  9
$DGNFRAME
280
    0
  9
$REALWORLDSCALE
290
    1
  9
$INTERFERECOLOR
 62
    1
  9
$CSHADOW
280
    0
  9
$SHADOWPLANELOCATION
 40
0
  0
ENDSEC
  0
SECTION
  2
CLASSES
  0
ENDSEC
  0
SECTION
  2
TABLES
  0
TABLE
  2
VPORT
  5
8
330
0
100
AcDbSymbolTable
 70
    1
  0
VPORT
  5
31
330
2
100
AcDbSymbolTableRecord
100
AcDbViewportTableRecord
  2
*ACTIVE
 70
    0
 10
0
 20
0
 11
1
 21
1
 12
145.5596174685692
 22
113.3832809755171
 13
0
 23
0
 14
10
 24
10
 15
10
 25
10
 16
0
 26
0
 36
1
 17
0
 27
0
 37
0
 40
243.2377818224775
 41
1.552755905511811
 42
50
 43
0
 44
0
 50
0
 51
0
 71
    0
 72
  100
 73
    1
 74
    3
 75
    0
 76
    1
 77
    1
 78
    0
281
    0
 65
    1
110
0
120
0
130
0
111
1
121
0
131
0
112
0
122
1
132
0
 79
    0
146
0
348
10020
 60
    7
 61
    5
292
1
282
    1
141
0
142
0
 63
  250
421
3358443
  0
ENDTAB
  0
TABLE
  2
LTYPE
  5
5
330
0
100
AcDbSymbolTable
 70
    4
  0
LTYPE
  5
14
330
5
100
AcDbSymbolTableRecord
100
AcDbLinetypeTableRecord
  2
ByBlock
 70
    0
  3

 72
   65
 73
    0
 40
0
  0
LTYPE
  5
15
330
5
100
AcDbSymbolTableRecord
100
AcDbLinetypeTableRecord
  2
ByLayer
 70
    0
  3

 72
   65
 73
    0
 40
0
  0
LTYPE
  5
16
330
5
100
AcDbSymbolTableRecord
100
AcDbLinetypeTableRecord
  2
Continuous
 70
    0
  3
Solid line
 72
   65
 73
    0
 40
0
  0
LTYPE
  5
32
330
5
100
AcDbSymbolTableRecord
100
AcDbLinetypeTableRecord
  2
DOT
 70
    0
  3
Dot . . . . . . . . . . . . . . . . . . . . . .
 72
   65
 73
    2
 40
6.35
 49
0
 74
    0
 49
-6.35
 74
    0
  0
LTYPE
  5
33
330
5
100
AcDbSymbolTableRecord
100
AcDbLinetypeTableRecord
  2
DOTTINY
 70
    0
  3
Dot (.15x) .....................................
 72
   65
 73
    2
 40
0.9525
 49
0
 74
    0
 49
-0.9525
 74
    0
  0
LTYPE
  5
34
330
5
100
AcDbSymbolTableRecord
100
AcDbLinetypeTableRecord
  2
DOT2
 70
    0
  3
Dot (.5x) .....................................
 72
   65
 73
    2
 40
3.175
 49
0
 74
    0
 49
-3.175
 74
    0
  0
LTYPE
  5
35
330
5
100
AcDbSymbolTableRecord
100
AcDbLinetypeTableRecord
  2
DOTX2
 70
    0
  3
Dot (2x) .  .  .  .  .  .  .  .  .  .  .  .  .
 72
   65
 73
    2
 40
12.7
 49
0
 74
    0
 49
-12.7
 74
    0
  0
LTYPE
  5
36
330
5
100
AcDbSymbolTableRecord
100
AcDbLinetypeTableRecord
  2
DASHED
 70
    0
  3
Dashed _ _ _ _ _ _ _ _ _ _ _ _ _ _ _ _ _
 72
   65
 73
    2
 40
19.05
 49
12.7
 74
    0
 49
-6.35
 74
    0
  0
LTYPE
  5
37
330
5
100
AcDbSymbolTableRecord
100
AcDbLinetypeTableRecord
  2
DASHEDTINY
 70
    0
  3
Dashed (.15x) _ _ _ _ _ _ _ _ _ _ _ _ _ _ _ _ _
 72
   65
 73
    2
 40
2.8575
 49
1.905
 74
    0
 49
-0.9525
 74
    0
  0
LTYPE
  5
38
330
5
100
AcDbSymbolTableRecord
100
AcDbLinetypeTableRecord
  2
DASHED2
 70
    0
  3
Dashed (.5x) _ _ _ _ _ _ _ _ _ _ _ _ _ _ _ _ _
 72
   65
 73
    2
 40
9.524999999999999
 49
6.35
 74
    0
 49
-3.175
 74
    0
  0
LTYPE
  5
39
330
5
100
AcDbSymbolTableRecord
100
AcDbLinetypeTableRecord
  2
DASHEDX2
 70
    0
  3
Dashed (2x) ____  ____  ____  ____  ____  ___
 72
   65
 73
    2
 40
38.09999999999999
 49
25.4
 74
    0
 49
-12.7
 74
    0
  0
LTYPE
  5
3A
330
5
100
AcDbSymbolTableRecord
100
AcDbLinetypeTableRecord
  2
DASHDOT
 70
    0
  3
Dash dot __ . __ . __ . __ . __ . __ . __ . __
 72
   65
 73
    4
 40
25.4
 49
12.7
 74
    0
 49
-6.35
 74
    0
 49
0
 74
    0
 49
-6.35
 74
    0
  0
LTYPE
  5
3B
330
5
100
AcDbSymbolTableRecord
100
AcDbLinetypeTableRecord
  2
DASHDOTTINY
 70
    0
  3
Dash dot (.15x) _._._._._._._._._._._._._._._.
 72
   65
 73
    4
 40
3.81
 49
1.905
 74
    0
 49
-0.9525
 74
    0
 49
0
 74
    0
 49
-0.9525
 74
    0
  0
LTYPE
  5
3C
330
5
100
AcDbSymbolTableRecord
100
AcDbLinetypeTableRecord
  2
DASHDOT2
 70
    0
  3
Dash dot (.5x) _._._._._._._._._._._._._._._.
 72
   65
 73
    4
 40
12.7
 49
6.35
 74
    0
 49
-3.175
 74
    0
 49
0
 74
    0
 49
-3.175
 74
    0
  0
LTYPE
  5
3D
330
5
100
AcDbSymbolTableRecord
100
AcDbLinetypeTableRecord
  2
DASHDOTX2
 70
    0
  3
Dash dot (2x) ____  .  ____  .  ____  .  ___
 72
   65
 73
    4
 40
50.8
 49
25.4
 74
    0
 49
-12.7
 74
    0
 49
0
 74
    0
 49
-12.7
 74
    0
  0
LTYPE
  5
3E
330
5
100
AcDbSymbolTableRecord
100
AcDbLinetypeTableRecord
  2
DIVIDE
 70
    0
  3
Divide ____ . . ____ . . ____ . . ____ . . ____
 72
   65
 73
    6
 40
31.75
 49
12.7
 74
    0
 49
-6.35
 74
    0
 49
0
 74
    0
 49
-6.35
 74
    0
 49
0
 74
    0
 49
-6.35
 74
    0
  0
LTYPE
  5
3F
330
5
100
AcDbSymbolTableRecord
100
AcDbLinetypeTableRecord
  2
DIVIDETINY
 70
    0
  3
Divide (.15x) __..__..__..__..__..__..__..__.._
 72
   65
 73
    6
 40
4.7625
 49
1.905
 74
    0
 49
-0.9525
 74
    0
 49
0
 74
    0
 49
-0.9525
 74
    0
 49
0
 74
    0
 49
-0.9525
 74
    0
  0
LTYPE
  5
40
330
5
100
AcDbSymbolTableRecord
100
AcDbLinetypeTableRecord
  2
DIVIDE2
 70
    0
  3
Divide (.5x) __..__..__..__..__..__..__..__.._
 72
   65
 73
    6
 40
15.875
 49
6.35
 74
    0
 49
-3.175
 74
    0
 49
0
 74
    0
 49
-3.175
 74
    0
 49
0
 74
    0
 49
-3.175
 74
    0
  0
LTYPE
  5
41
330
5
100
AcDbSymbolTableRecord
100
AcDbLinetypeTableRecord
  2
DIVIDEX2
 70
    0
  3
Divide (2x) ________  .  .  ________  .  .  _
 72
   65
 73
    6
 40
63.5
 49
25.4
 74
    0
 49
-12.7
 74
    0
 49
0
 74
    0
 49
-12.7
 74
    0
 49
0
 74
    0
 49
-12.7
 74
    0
  0
LTYPE
  5
42
330
5
100
AcDbSymbolTableRecord
100
AcDbLinetypeTableRecord
  2
BORDER
 70
    0
  3
Border __ __ . __ __ . __ __ . __ __ . __ __ .
 72
   65
 73
    6
 40
44.45
 49
12.7
 74
    0
 49
-6.35
 74
    0
 49
12.7
 74
    0
 49
-6.35
 74
    0
 49
0
 74
    0
 49
-6.35
 74
    0
  0
LTYPE
  5
43
330
5
100
AcDbSymbolTableRecord
100
AcDbLinetypeTableRecord
  2
BORDERTINY
 70
    0
  3
Border (.15x) __.__.__.__.__.__.__.__.__.__.__.
 72
   65
 73
    6
 40
6.6675
 49
1.905
 74
    0
 49
-0.9525
 74
    0
 49
1.905
 74
    0
 49
-0.9525
 74
    0
 49
0
 74
    0
 49
-0.9525
 74
    0
  0
LTYPE
  5
44
330
5
100
AcDbSymbolTableRecord
100
AcDbLinetypeTableRecord
  2
BORDER2
 70
    0
  3
Border (.5x) __.__.__.__.__.__.__.__.__.__.__.
 72
   65
 73
    6
 40
22.225
 49
6.35
 74
    0
 49
-3.175
 74
    0
 49
6.35
 74
    0
 49
-3.175
 74
    0
 49
0
 74
    0
 49
-3.175
 74
    0
  0
LTYPE
  5
45
330
5
100
AcDbSymbolTableRecord
100
AcDbLinetypeTableRecord
  2
BORDERX2
 70
    0
  3
Border (2x) ____  ____  .  ____  ____  .  ___
 72
   65
 73
    6
 40
88.89999999999999
 49
25.4
 74
    0
 49
-12.7
 74
    0
 49
25.4
 74
    0
 49
-12.7
 74
    0
 49
0
 74
    0
 49
-12.7
 74
    0
  0
LTYPE
  5
46
330
5
100
AcDbSymbolTableRecord
100
AcDbLinetypeTableRecord
  2
CENTER
 70
    0
  3
Center ____ _ ____ _ ____ _ ____ _ ____ _ ____
 72
   65
 73
    4
 40
50.8
 49
31.75
 74
    0
 49
-6.35
 74
    0
 49
6.35
 74
    0
 49
-6.35
 74
    0
  0
LTYPE
  5
47
330
5
100
AcDbSymbolTableRecord
100
AcDbLinetypeTableRecord
  2
CENTERTINY
 70
    0
  3
Center (.15x) ___ _ ___ _ ___ _ ___ _ ___ _ ___
 72
   65
 73
    4
 40
7.619999999999999
 49
4.7625
 74
    0
 49
-0.9525
 74
    0
 49
0.9525
 74
    0
 49
-0.9525
 74
    0
  0
LTYPE
  5
48
330
5
100
AcDbSymbolTableRecord
100
AcDbLinetypeTableRecord
  2
CENTER2
 70
    0
  3
Center (.5x) ___ _ ___ _ ___ _ ___ _ ___ _ ___
 72
   65
 73
    4
 40
28.575
 49
19.05
 74
    0
 49
-3.175
 74
    0
 49
3.175
 74
    0
 49
-3.175
 74
    0
  0
LTYPE
  5
49
330
5
100
AcDbSymbolTableRecord
100
AcDbLinetypeTableRecord
  2
CENTERX2
 70
    0
  3
Center (2x) ________  __  ________  __  _____
 72
   65
 73
    4
 40
101.6
 49
63.5
 74
    0
 49
-12.7
 74
    0
 49
12.7
 74
    0
 49
-12.7
 74
    0
  0
ENDTAB
  0
TABLE
  2
LAYER
  5
2
330
0
100
AcDbSymbolTable
 70
    1
  0
LAYER
  5
10
330
2
100
AcDbSymbolTableRecord
100
AcDbLayerTableRecord
  2
0
 70
    5
 62
    7
  6
CONTINUOUS
290
0
370
    0
390
F
  0
LAYER
  5
4A
330
2
100
AcDbSymbolTableRecord
100
AcDbLayerTableRecord
  2
anchors
 70
    1
 62
    4
  6
CONTINUOUS
290
0
370
    0
390
F
  0
LAYER
  5
4B
330
2
100
AcDbSymbolTableRecord
100
AcDbLayerTableRecord
  2
dims
 70
    0
 62
    5
  6
CONTINUOUS
370
   18
390
F
  0
LAYER
  5
4C
330
2
100
AcDbSymbolTableRecord
100
AcDbLayerTableRecord
  2
drum_front
 70
    0
 62
    7
  6
CONTINUOUS
370
   50
390
F
  0
LAYER
  5
4D
330
2
100
AcDbSymbolTableRecord
100
AcDbLayerTableRecord
  2
drum_iso
 70
    0
 62
    7
  6
CONTINUOUS
370
   50
390
F
  0
LAYER
  5
4E
330
2
100
AcDbSymbolTableRecord
100
AcDbLayerTableRecord
  2
drum_paddles_front
 70
    0
 62
    7
  6
CONTINUOUS
370
   25
390
F
  0
LAYER
  5
4F
330
2
100
AcDbSymbolTableRecord
100
AcDbLayerTableRecord
  2
drum_paddles_side
 70
    0
 62
    7
  6
CONTINUOUS
370
   25
390
F
  0
LAYER
  5
50
330
2
100
AcDbSymbolTableRecord
100
AcDbLayerTableRecord
  2
drum_side
 70
    0
 62
    7
  6
CONTINUOUS
370
   50
390
F
  0
LAYER
  5
51
330
2
100
AcDbSymbolTableRecord
100
AcDbLayerTableRecord
  2
frame
 70
    0
 62
    7
  6
CONTINUOUS
370
   50
390
F
  0
LAYER
  5
52
330
2
100
AcDbSymbolTableRecord
100
AcDbLayerTableRecord
  2
frame_iso
 70
    0
 62
    7
  6
CONTINUOUS
370
   50
390
F
  0
LAYER
  5
53
330
2
100
AcDbSymbolTableRecord
100
AcDbLayerTableRecord
  2
frame_iso_deleted
 70
    1
 62
    7
  6
CONTINUOUS
370
    0
390
F
  0
LAYER
  5
54
330
2
100
AcDbSymbolTableRecord
100
AcDbLayerTableRecord
  2
frame_iso_hidden
 70
    1
 62
    7
  6
CONTINUOUS
370
    0
390
F
  0
ENDTAB
  0
TABLE
  2
STYLE
  5
3
330
0
100
AcDbSymbolTable
 70
    3
  0
STYLE
  5
55
330
2
100
AcDbSymbolTableRecord
100
AcDbTextStyleTableRecord
  2
standard
 70
    0
 40
0
 41
1
 50
0
 71
    0
 42
1
  3
standard
  4

  0
ENDTAB
  0
TABLE
  2
VIEW
  5
6
330
0
100
AcDbSymbolTable
 70
    0
  0
ENDTAB
  0
TABLE
  2
UCS
  5
7
330
0
100
AcDbSymbolTable
 70
    0
  0
ENDTAB
  0
TABLE
  2
APPID
  5
9
330
0
100
AcDbSymbolTable
 70
    1
  0
APPID
  5
12
330
9
100
AcDbSymbolTableRecord
100
AcDbRegAppTableRecord
  2
ACAD
 70
    0
  0
APPID
  5
56
330
9
100
AcDbSymbolTableRecord
100
AcDbRegAppTableRecord
  2
LibreCad
 70
    0
  0
ENDTAB
  0
TABLE
  2
DIMSTYLE
  5
A
330
0
100
AcDbSymbolTable
 70
    1
100
AcDbDimStyleTable
 71
    1
  0
DIMSTYLE
105
57
330
A
100
AcDbSymbolTableRecord
100
AcDbDimStyleTableRecord
  2
Standard
 70
    0
 40
1
 41
5
 42
1
 43
0.38
 44
0.05
 45
0
 46
0
 47
0
 48
0
 49
1
140
2
141
0.09
142
0
143
25.4
144
1
145
0
146
1
147
1
148
0
 71
    0
 72
    0
 73
    0
 74
    1
 75
    0
 76
    0
 77
    0
 78
    8
 79
    0
170
    0
171
    2
172
    0
173
    0
174
    0
175
    0
176
    0
177
    0
178
    0
179
    0
271
    2
272
    4
273
    2
274
    2
275
    0
276
    0
277
    2
278
    0
279
    0
280
    0
281
    0
282
    0
283
    1
284
    0
285
    0
286
    0
288
    0
289
    3
340
standard
341

371
   -2
372
   -2
  0
ENDTAB
  0
TABLE
  2
BLOCK_RECORD
  5
1
330
0
100
AcDbSymbolTable
 70
    2
  0
BLOCK_RECORD
  5
1F
330
1
100
AcDbSymbolTableRecord
100
AcDbBlockTableRecord
  2
*Model_Space
 70
    0
280
    1
281
    0
  0
BLOCK_RECORD
  5
1E
330
1
100
AcDbSymbolTableRecord
100
AcDbBlockTableRecord
  2
*Paper_Space
 70
    0
280
    1
281
    0
  0
BLOCK_RECORD
  5
58
330
1
100
AcDbSymbolTableRecord
100
AcDbBlockTableRecord
  2
*D4
 70
    0
280
    1
281
    0
  0
BLOCK_RECORD
  5
5B
330
1
100
AcDbSymbolTableRecord
100
AcDbBlockTableRecord
  2
*D1
 70
    0
280
    1
281
    0
  0
BLOCK_RECORD
  5
5E
330
1
100
AcDbSymbolTableRecord
100
AcDbBlockTableRecord
  2
*D3
 70
    0
280
    1
281
    0
  0
BLOCK_RECORD
  5
61
330
1
100
AcDbSymbolTableRecord
100
AcDbBlockTableRecord
  2
*D2
 70
    0
280
    1
281
    0
  0
ENDTAB
  0
ENDSEC
  0
SECTION
  2
BLOCKS
  0
BLOCK
  5
20
330
1F
100
AcDbEntity
  8
0
100
AcDbBlockBegin
  2
*Model_Space
 70
    0
 10
0
 20
0
 30
0
  3
*Model_Space
  1

  0
ENDBLK
  5
21
330
1F
100
AcDbEntity
  8
0
100
AcDbBlockEnd
  0
BLOCK
  5
1C
330
1B
100
AcDbEntity
  8
0
100
AcDbBlockBegin
  2
*Paper_Space
 70
    0
 10
0
 20
0
 30
0
  3
*Paper_Space
  1

  0
ENDBLK
  5
1D
330
1F
100
AcDbEntity
  8
0
100
AcDbBlockEnd
  0
BLOCK
  5
59
330
58
100
AcDbEntity
  8
0
100
AcDbBlockBegin
  2
*D4
 70
    1
 10
0
 20
0
  3
*D4
  1

  0
LINE
  5
64
100
AcDbEntity
  8
dims
  6
ByBlock
 62
    0
370
   -2
100
AcDbLine
 10
98.5
 20
-12.16136427858863
 11
152.5
 21
-12.16136427858863
  0
SOLID
  5
65
100
AcDbEntity
  8
dims
  6
ByBlock
 62
    0
370
   -2
100
AcDbTrace
 10
98.5
 20
-12.16136427858863
 30
0
 11
103.5
 21
-11.32879496304295
 31
0
 12
103.5
 22
-12.99393359413431
 32
0
 13
103.5
 23
-12.99393359413431
 33
0
  0
SOLID
  5
66
100
AcDbEntity
  8
dims
  6
ByBlock
 62
    0
370
   -2
100
AcDbTrace
 10
152.5
 20
-12.16136427858863
 30
0
 11
147.5
 21
-12.99393359413431
 31
0
 12
147.5
 22
-11.32879496304295
 32
0
 13
147.5
 23
-11.32879496304295
 33
0
  0
MTEXT
  5
67
100
AcDbEntity
  8
dims
  6
CONTINUOUS
 62
    0
370
   -2
100
AcDbMText
 10
125.5
 20
-10.16136427858863
 30
0
 40
2
 41
2.66666666666679
 71
    5
 72
    1
  1
54
  7
standard
210
0
220
0
230
1
 50
0
 73
    2
 44
1
  0
LINE
  5
68
100
AcDbEntity
  8
dims
  6
ByBlock
 62
    0
370
   -2
100
AcDbLine
 10
98.5
 20
0.875
 11
98.5
 21
-12.21136427858863
  0
LINE
  5
69
100
AcDbEntity
  8
dims
  6
ByBlock
 62
    0
370
   -2
100
AcDbLine
 10
152.5
 20
0.875
 11
152.5
 21
-12.21136427858863
  0
ENDBLK
  5
5A
330
58
100
AcDbEntity
  8
0
100
AcDbBlockEnd
  0
BLOCK
  5
5C
330
5B
100
AcDbEntity
  8
0
100
AcDbBlockBegin
  2
*D1
 70
    1
 10
0
 20
0
  3
*D1
  1

  0
LINE
  5
6A
100
AcDbEntity
  8
dims
  6
ByBlock
 62
    0
370
   -2
100
AcDbLine
 10
30.00000000000001
 20
100
 11
78
 21
100
  0
SOLID
  5
6B
100
AcDbEntity
  8
dims
  6
ByBlock
 62
    0
370
   -2
100
AcDbTrace
 10
30.00000000000001
 20
100
 30
0
 11
35.00000000000001
 21
100.8325693155457
 31
0
 12
35.00000000000001
 22
99.16743068445432
 32
0
 13
35.00000000000001
 23
99.16743068445432
 33
0
  0
SOLID
  5
6C
100
AcDbEntity
  8
dims
  6
ByBlock
 62
    0
370
   -2
100
AcDbTrace
 10
78
 20
100
 30
0
 11
73
 21
99.16743068445432
 31
0
 12
73
 22
100.8325693155457
 32
0
 13
73
 23
100.8325693155457
 33
0
  0
MTEXT
  5
6D
100
AcDbEntity
  8
dims
  6
CONTINUOUS
 62
    0
370
   -2
100
AcDbMText
 10
54.00000000000001
 20
102
 30
0
 40
2
 41
2.666666666666667
 71
    5
 72
    1
  1
48
  7
standard
210
0
220
0
230
1
 50
0
 73
    2
 44
1
  0
LINE
  5
6E
100
AcDbEntity
  8
dims
  6
ByBlock
 62
    0
370
   -2
100
AcDbLine
 10
30.00000000000001
 20
60.75
 11
30.00000000000001
 21
100.05
  0
LINE
  5
6F
100
AcDbEntity
  8
dims
  6
ByBlock
 62
    0
370
   -2
100
AcDbLine
 10
78
 20
60.74999999999999
 11
78
 21
100.05
  0
ENDBLK
  5
5D
330
5B
100
AcDbEntity
  8
0
100
AcDbBlockEnd
  0
BLOCK
  5
5F
330
5E
100
AcDbEntity
  8
0
100
AcDbBlockBegin
  2
*D3
 70
    1
 10
0
 20
0
  3
*D3
  1

  0
LINE
  5
70
100
AcDbEntity
  8
dims
  6
ByBlock
 62
    0
370
   -2
100
AcDbLine
 10
100
 20
90.00301769983206
 11
148
 21
90.00301769983206
  0
SOLID
  5
71
100
AcDbEntity
  8
dims
  6
ByBlock
 62
    0
370
   -2
100
AcDbTrace
 10
100
 20
90.00301769983206
 30
0
 11
105
 21
90.83558701537774
 31
0
 12
105
 22
89.17044838428637
 32
0
 13
105
 23
89.17044838428637
 33
0
  0
SOLID
  5
72
100
AcDbEntity
  8
dims
  6
ByBlock
 62
    0
370
   -2
100
AcDbTrace
 10
148
 20
90.00301769983206
 30
0
 11
143
 21
89.17044838428637
 31
0
 12
143
 22
90.83558701537774
 32
0
 13
143
 23
90.83558701537774
 33
0
  0
MTEXT
  5
73
100
AcDbEntity
  8
dims
  6
CONTINUOUS
 62
    0
370
   -2
100
AcDbMText
 10
124
 20
92.00301769983206
 30
0
 40
2
 41
2.666666666666667
 71
    5
 72
    1
  1
48
  7
standard
210
0
220
0
230
1
 50
0
 73
    2
 44
1
  0
LINE
  5
74
100
AcDbEntity
  8
dims
  6
ByBlock
 62
    0
370
   -2
100
AcDbLine
 10
100
 20
85
 11
100
 21
90.05301769983205
  0
LINE
  5
75
100
AcDbEntity
  8
dims
  6
ByBlock
 62
    0
370
   -2
100
AcDbLine
 10
148
 20
85
 11
148
 21
90.05301769983205
  0
ENDBLK
  5
60
330
5E
100
AcDbEntity
  8
0
100
AcDbBlockEnd
  0
BLOCK
  5
62
330
61
100
AcDbEntity
  8
0
100
AcDbBlockBegin
  2
*D2
 70
    1
 10
0
 20
0
  3
*D2
  1

  0
LINE
  5
76
100
AcDbEntity
  8
dims
  6
ByBlock
 62
    0
370
   -2
100
AcDbLine
 10
175
 20
36
 11
175
 21
3.944304526105059e-31
  0
SOLID
  5
77
100
AcDbEntity
  8
dims
  6
ByBlock
 62
    0
370
   -2
100
AcDbTrace
 10
175
 20
36
 30
0
 11
175.8325693155457
 21
31
 31
0
 12
174.1674306844543
 22
31
 32
0
 13
174.1674306844543
 23
31
 33
0
  0
SOLID
  5
78
100
AcDbEntity
  8
dims
  6
ByBlock
 62
    0
370
   -2
100
AcDbTrace
 10
175
 20
3.944304526105059e-31
 30
0
 11
174.1674306844543
 21
5
 31
0
 12
175.8325693155457
 22
5
 32
0
 13
175.8325693155457
 23
5
 33
0
  0
MTEXT
  5
79
100
AcDbEntity
  8
dims
  6
CONTINUOUS
 62
    0
370
   -2
100
AcDbMText
 10
173
 20
18
 30
0
 40
2
 41
2.444444444444692
 71
    5
 72
    1
  1
36
  7
standard
210
0
220
0
230
1
 50
90
 73
    2
 44
1
  0
LINE
  5
7A
100
AcDbEntity
  8
dims
  6
ByBlock
 62
    0
370
   -2
100
AcDbLine
 10
153.5
 20
36
 11
175.05
 21
36
  0
LINE
  5
7B
100
AcDbEntity
  8
dims
  6
ByBlock
 62
    0
370
   -2
100
AcDbLine
 10
152
 20
0
 11
175.05
 21
3.944304526105059e-31
  0
ENDBLK
  5
63
330
61
100
AcDbEntity
  8
0
100
AcDbBlockEnd
  0
ENDSEC
  0
SECTION
  2
ENTITIES
  0
LINE
  5
7C
100
AcDbEntity
  8
anchors
  6
ByLayer
 62
  256
370
   -1
100
AcDbLine
 10
30
 20
-0.25
 11
30
 21
1.625
  0
LINE
  5
7D
100
AcDbEntity
  8
frame
  6
ByLayer
 62
  256
370
   -1
100
AcDbLine
 10
79.75
 20
1.625
 11
79.75
 21
7.375
  0
LINE
  5
7E
100
AcDbEntity
  8
frame
  6
ByLayer
 62
  256
370
   -1
100
AcDbLine
 10
79.75
 20
7.375
 11
78
 21
7.375
  0
LINE
  5
7F
100
AcDbEntity
  8
frame
  6
ByLayer
 62
  256
370
   -1
100
AcDbLine
 10
30
 20
7.375
 11
28.25
 21
7.375
  0
LINE
  5
80
100
AcDbEntity
  8
frame
  6
ByLayer
 62
  256
370
   -1
100
AcDbLine
 10
28.25
 20
7.375
 11
28.25
 21
1.625
  0
LINE
  5
81
100
AcDbEntity
  8
frame
  6
ByLayer
 62
  256
370
   -1
100
AcDbLine
 10
33.75
 20
1.625
 11
74.25
 21
1.625
  0
LINE
  5
82
100
AcDbEntity
  8
frame
  6
ByLayer
 62
  256
370
   -1
100
AcDbLine
 10
28.25
 20
1.625
 11
30
 21
1.625
  0
LINE
  5
83
100
AcDbEntity
  8
frame
  6
ByLayer
 62
  256
370
   -1
100
AcDbLine
 10
79.75
 20
1.625
 11
78
 21
1.625
  0
LINE
  5
84
100
AcDbEntity
  8
frame
  6
ByLayer
 62
  256
370
   -1
100
AcDbLine
 10
33.75
 20
7.375
 11
74.25
 21
7.375
  0
LINE
  5
85
100
AcDbEntity
  8
frame
  6
ByLayer
 62
  256
370
   -1
100
AcDbLine
 10
30
 20
35.75
 11
28.25
 21
35.75
  0
LINE
  5
86
100
AcDbEntity
  8
frame
  6
ByLayer
 62
  256
370
   -1
100
AcDbLine
 10
28.25
 20
35.75
 11
28.25
 21
30
  0
LINE
  5
87
100
AcDbEntity
  8
frame
  6
ByLayer
 62
  256
370
   -1
100
AcDbLine
 10
78
 20
35.75
 11
79.75
 21
35.75
  0
LINE
  5
88
100
AcDbEntity
  8
frame
  6
ByLayer
 62
  256
370
   -1
100
AcDbLine
 10
79.75
 20
35.75
 11
79.75
 21
30
  0
LINE
  5
89
100
AcDbEntity
  8
frame
  6
ByLayer
 62
  256
370
   -1
100
AcDbLine
 10
28.25
 20
30
 11
30
 21
30
  0
LINE
  5
8A
100
AcDbEntity
  8
frame
  6
ByLayer
 62
  256
370
   -1
100
AcDbLine
 10
30
 20
30
 11
78
 21
30
  0
LINE
  5
8B
100
AcDbEntity
  8
frame
  6
ByLayer
 62
  256
370
   -1
100
AcDbLine
 10
78
 20
30
 11
79.75
 21
30
  0
LINE
  5
8C
100
AcDbEntity
  8
frame
  6
ByLayer
 62
  256
370
   -1
100
AcDbLine
 10
30
 20
35.75
 11
78
 21
35.75
  0
LINE
  5
8D
100
AcDbEntity
  8
frame
  6
ByLayer
 62
  256
370
   -1
100
AcDbLine
 10
30
 20
-0.25
 11
30
 21
35.75
  0
LINE
  5
8E
100
AcDbEntity
  8
frame
  6
ByLayer
 62
  256
370
   -1
100
AcDbLine
 10
30
 20
35.75
 11
33.75
 21
35.75
  0
LINE
  5
8F
100
AcDbEntity
  8
frame
  6
ByLayer
 62
  256
370
   -1
100
AcDbLine
 10
74.25
 20
35.75
 11
78
 21
35.75
  0
LINE
  5
90
100
AcDbEntity
  8
frame
  6
ByLayer
 62
  256
370
   -1
100
AcDbLine
 10
78
 20
35.75
 11
78
 21
-0.25
  0
LINE
  5
91
100
AcDbEntity
  8
frame
  6
ByLayer
 62
  256
370
   -1
100
AcDbLine
 10
30
 20
-0.25
 11
33.75
 21
-0.25
  0
LINE
  5
92
100
AcDbEntity
  8
frame
  6
ByLayer
 62
  256
370
   -1
100
AcDbLine
 10
74.25
 20
-0.25
 11
78
 21
-0.25
  0
LINE
  5
93
100
AcDbEntity
  8
frame
  6
ByLayer
 62
  256
370
   -1
100
AcDbLine
 10
33.75
 20
30
 11
33.75
 21
-0.25
  0
LINE
  5
94
100
AcDbEntity
  8
frame
  6
ByLayer
 62
  256
370
   -1
100
AcDbLine
 10
74.25
 20
-0.25
 11
74.25
 21
30
  0
CIRCLE
  5
95
100
AcDbEntity
  8
drum_front
  6
ByLayer
 62
  256
370
   -1
100
AcDbCircle
 10
54.00000000000001
 20
59.75
 40
24
  0
CIRCLE
  5
96
100
AcDbEntity
  8
drum_front
  6
ByLayer
 62
  256
370
   -1
100
AcDbCircle
 10
54.00000000000001
 20
59.75
 40
18
  0
CIRCLE
  5
97
100
AcDbEntity
  8
drum_front
  6
ByLayer
 62
  256
370
   -1
100
AcDbCircle
 10
54.00000000000001
 20
59.75
 40
24
  0
CIRCLE
  5
98
100
AcDbEntity
  8
drum_front
  6
ByLayer
 62
  256
370
   -1
100
AcDbCircle
 10
54.00000000000001
 20
59.75
 40
24
  0
LINE
  5
99
100
AcDbEntity
  8
frame
  6
ByLayer
 62
  256
370
   -1
100
AcDbLine
 10
100
 20
36
 11
103.5
 21
36
  0
LINE
  5
9A
100
AcDbEntity
  8
frame
  6
ByLayer
 62
  256
370
   -1
100
AcDbLine
 10
103.5
 20
0
 11
100
 21
0
  0
LINE
  5
9B
100
AcDbEntity
  8
anchors
  6
ByLayer
 62
  256
370
   -1
100
AcDbLine
 10
100
 20
0
 11
100
 21
1.875
  0
LINE
  5
9C
100
AcDbEntity
  8
frame
  6
ByLayer
 62
  256
370
   -1
100
AcDbLine
 10
100
 20
1.875
 11
98.5
 21
1.875
  0
LINE
  5
9D
100
AcDbEntity
  8
frame
  6
ByLayer
 62
  256
370
   -1
100
AcDbLine
 10
98.5
 20
1.875
 11
98.5
 21
7.375
  0
LINE
  5
9E
100
AcDbEntity
  8
frame
  6
ByLayer
 62
  256
370
   -1
100
AcDbLine
 10
98.5
 20
7.375
 11
152.5
 21
7.375
  0
LINE
  5
9F
100
AcDbEntity
  8
frame
  6
ByLayer
 62
  256
370
   -1
100
AcDbLine
 10
152.5
 20
7.375
 11
152.5
 21
1.875
  0
LINE
  5
A0
100
AcDbEntity
  8
frame
  6
ByLayer
 62
  256
370
   -1
100
AcDbLine
 10
152.5
 20
1.875
 11
98.5
 21
1.875
  0
LINE
  5
A1
100
AcDbEntity
  8
anchors
  6
ByLayer
 62
  256
370
   -1
100
AcDbLine
 10
152.5
 20
1.875
 11
151
 21
1.875
  0
LINE
  5
A2
100
AcDbEntity
  8
frame
  6
ByLayer
 62
  256
370
   -1
100
AcDbLine
 10
151
 20
1.875
 11
151
 21
0
  0
LINE
  5
A3
100
AcDbEntity
  8
frame
  6
ByLayer
 62
  256
370
   -1
100
AcDbLine
 10
151
 20
0
 11
147.5
 21
0
  0
LINE
  5
A4
100
AcDbEntity
  8
frame
  6
ByLayer
 62
  256
370
   -1
100
AcDbLine
 10
147.5
 20
36
 11
151
 21
36
  0
LINE
  5
A5
100
AcDbEntity
  8
frame
  6
ByLayer
 62
  256
370
   -1
100
AcDbLine
 10
100
 20
36
 11
98.5
 21
36
  0
LINE
  5
A6
100
AcDbEntity
  8
frame
  6
ByLayer
 62
  256
370
   -1
100
AcDbLine
 10
98.5
 20
36
 11
98.5
 21
30.5
  0
LINE
  5
A7
100
AcDbEntity
  8
frame
  6
ByLayer
 62
  256
370
   -1
100
AcDbLine
 10
98.5
 20
30.5
 11
152.5
 21
30.5
  0
LINE
  5
A8
100
AcDbEntity
  8
frame
  6
ByLayer
 62
  256
370
   -1
100
AcDbLine
 10
152.5
 20
30.5
 11
152.5
 21
36
  0
LINE
  5
A9
100
AcDbEntity
  8
frame
  6
ByLayer
 62
  256
370
   -1
100
AcDbLine
 10
152.5
 20
36
 11
98.5
 21
36
  0
LINE
  5
AA
100
AcDbEntity
  8
frame
  6
ByLayer
 62
  256
370
   -1
100
AcDbLine
 10
151
 20
30.5
 11
151
 21
7.375
  0
LINE
  5
AB
100
AcDbEntity
  8
frame
  6
ByLayer
 62
  256
370
   -1
100
AcDbLine
 10
147.5
 20
7.375
 11
147.5
 21
30.5
  0
LINE
  5
AC
100
AcDbEntity
  8
frame
  6
ByLayer
 62
  256
370
   -1
100
AcDbLine
 10
103.5
 20
30.5
 11
103.5
 21
7.375
  0
LINE
  5
AD
100
AcDbEntity
  8
frame
  6
ByLayer
 62
  256
370
   -1
100
AcDbLine
 10
100
 20
7.375
 11
100
 21
30.5
  0
LINE
  5
AE
100
AcDbEntity
  8
frame
  6
ByLayer
 62
  256
370
   -1
100
AcDbLine
 10
100
 20
0
 11
100
 21
1.875
  0
LINE
  5
AF
100
AcDbEntity
  8
frame
  6
ByLayer
 62
  256
370
   -1
100
AcDbLine
 10
103.5
 20
0
 11
103.5
 21
1.875
  0
LINE
  5
B0
100
AcDbEntity
  8
frame
  6
ByLayer
 62
  256
370
   -1
100
AcDbLine
 10
147.5
 20
0
 11
147.5
 21
1.875
  0
LINE
  5
B1
100
AcDbEntity
  8
drum_side
  6
ByLayer
 62
  256
370
   -1
100
AcDbLine
 10
100
 20
36
 11
100
 21
84
  0
LINE
  5
B2
100
AcDbEntity
  8
drum_side
  6
ByLayer
 62
  256
370
   -1
100
AcDbLine
 10
100
 20
84
 11
148
 21
84
  0
LINE
  5
B3
100
AcDbEntity
  8
drum_side
  6
ByLayer
 62
  256
370
   -1
100
AcDbLine
 10
148
 20
84
 11
148
 21
36
  0
LINE
  5
B4
100
AcDbEntity
  8
drum_side
  6
ByLayer
 62
  256
370
   -1
100
AcDbLine
 10
148
 20
36
 11
100
 21
36
  0
LINE
  5
B5
100
AcDbEntity
  8
anchors
  6
ByLayer
 62
  256
370
   -1
100
AcDbLine
 10
54.00000000000001
 20
83.75
 11
55.75000000000001
 21
83.75
  0
LINE
  5
B6
100
AcDbEntity
  8
drum_paddles_front
  6
ByLayer
 62
  256
370
   -1
100
AcDbLine
 10
55.75000000000001
 20
83.75
 11
55.75000000000001
 21
82.25
  0
LINE
  5
B7
100
AcDbEntity
  8
drum_paddles_front
  6
ByLayer
 62
  256
370
   -1
100
AcDbLine
 10
55.75000000000001
 20
82.25
 11
52.25000000000001
 21
82.25
  0
LINE
  5
B8
100
AcDbEntity
  8
drum_paddles_front
  6
ByLayer
 62
  256
370
   -1
100
AcDbLine
 10
52.25000000000001
 20
82.25
 11
52.25000000000001
 21
83.75
  0
LINE
  5
B9
100
AcDbEntity
  8
drum_paddles_front
  6
ByLayer
 62
  256
370
   -1
100
AcDbLine
 10
52.25000000000001
 20
83.75
 11
55.75000000000001
 21
83.75
  0
LINE
  5
BA
100
AcDbEntity
  8
drum_paddles_front
  6
ByLayer
 62
  256
370
   -1
100
AcDbLine
 10
38.26687411859933
 20
77.9579996155536
 11
39.32753429037915
 21
76.89733944377377
  0
LINE
  5
BB
100
AcDbEntity
  8
drum_paddles_front
  6
ByLayer
 62
  256
370
   -1
100
AcDbLine
 10
39.32753429037915
 20
76.89733944377377
 11
36.85266055622623
 21
74.42246570962087
  0
LINE
  5
BC
100
AcDbEntity
  8
drum_paddles_front
  6
ByLayer
 62
  256
370
   -1
100
AcDbLine
 10
36.85266055622623
 20
74.42246570962087
 11
35.79200038444641
 21
75.48312588140068
  0
LINE
  5
BD
100
AcDbEntity
  8
drum_paddles_front
  6
ByLayer
 62
  256
370
   -1
100
AcDbLine
 10
35.79200038444641
 20
75.48312588140068
 11
38.26687411859933
 21
77.9579996155536
  0
LINE
  5
BE
100
AcDbEntity
  8
drum_paddles_front
  6
ByLayer
 62
  256
370
   -1
100
AcDbLine
 10
30.00000000000001
 20
61.5
 11
31.50000000000001
 21
61.5
  0
LINE
  5
BF
100
AcDbEntity
  8
drum_paddles_front
  6
ByLayer
 62
  256
370
   -1
100
AcDbLine
 10
31.50000000000001
 20
61.5
 11
31.50000000000001
 21
58
  0
LINE
  5
C0
100
AcDbEntity
  8
drum_paddles_front
  6
ByLayer
 62
  256
370
   -1
100
AcDbLine
 10
31.50000000000001
 20
58
 11
30.00000000000001
 21
58
  0
LINE
  5
C1
100
AcDbEntity
  8
drum_paddles_front
  6
ByLayer
 62
  256
370
   -1
100
AcDbLine
 10
30.00000000000001
 20
58
 11
30.00000000000001
 21
61.5
  0
LINE
  5
C2
100
AcDbEntity
  8
drum_paddles_front
  6
ByLayer
 62
  256
370
   -1
100
AcDbLine
 10
35.79200038444641
 20
44.01687411859932
 11
36.85266055622623
 21
45.07753429037914
  0
LINE
  5
C3
100
AcDbEntity
  8
drum_paddles_front
  6
ByLayer
 62
  256
370
   -1
100
AcDbLine
 10
36.85266055622623
 20
45.07753429037914
 11
39.32753429037915
 21
42.60266055622623
  0
LINE
  5
C4
100
AcDbEntity
  8
drum_paddles_front
  6
ByLayer
 62
  256
370
   -1
100
AcDbLine
 10
39.32753429037915
 20
42.60266055622623
 11
38.26687411859932
 21
41.5420003844464
  0
LINE
  5
C5
100
AcDbEntity
  8
drum_paddles_front
  6
ByLayer
 62
  256
370
   -1
100
AcDbLine
 10
38.26687411859932
 20
41.5420003844464
 11
35.79200038444641
 21
44.01687411859932
  0
LINE
  5
C6
100
AcDbEntity
  8
drum_paddles_front
  6
ByLayer
 62
  256
370
   -1
100
AcDbLine
 10
52.25000000000001
 20
35.75
 11
52.25000000000001
 21
37.25
  0
LINE
  5
C7
100
AcDbEntity
  8
drum_paddles_front
  6
ByLayer
 62
  256
370
   -1
100
AcDbLine
 10
52.25000000000001
 20
37.25
 11
55.75000000000001
 21
37.25
  0
LINE
  5
C8
100
AcDbEntity
  8
drum_paddles_front
  6
ByLayer
 62
  256
370
   -1
100
AcDbLine
 10
55.75000000000001
 20
37.25
 11
55.75000000000001
 21
35.75
  0
LINE
  5
C9
100
AcDbEntity
  8
drum_paddles_front
  6
ByLayer
 62
  256
370
   -1
100
AcDbLine
 10
55.75000000000001
 20
35.75
 11
52.25000000000001
 21
35.75
  0
LINE
  5
CA
100
AcDbEntity
  8
drum_paddles_front
  6
ByLayer
 62
  256
370
   -1
100
AcDbLine
 10
69.7331258814007
 20
41.5420003844464
 11
68.67246570962087
 21
42.60266055622622
  0
LINE
  5
CB
100
AcDbEntity
  8
drum_paddles_front
  6
ByLayer
 62
  256
370
   -1
100
AcDbLine
 10
68.67246570962087
 20
42.60266055622622
 11
71.14733944377379
 21
45.07753429037913
  0
LINE
  5
CC
100
AcDbEntity
  8
drum_paddles_front
  6
ByLayer
 62
  256
370
   -1
100
AcDbLine
 10
71.14733944377379
 20
45.07753429037913
 11
72.2079996155536
 21
44.01687411859932
  0
LINE
  5
CD
100
AcDbEntity
  8
drum_paddles_front
  6
ByLayer
 62
  256
370
   -1
100
AcDbLine
 10
72.2079996155536
 20
44.01687411859932
 11
69.7331258814007
 21
41.5420003844464
  0
LINE
  5
CE
100
AcDbEntity
  8
drum_paddles_front
  6
ByLayer
 62
  256
370
   -1
100
AcDbLine
 10
78
 20
57.99999999999999
 11
76.5
 21
57.99999999999999
  0
LINE
  5
CF
100
AcDbEntity
  8
drum_paddles_front
  6
ByLayer
 62
  256
370
   -1
100
AcDbLine
 10
76.5
 20
57.99999999999999
 11
76.5
 21
61.49999999999999
  0
LINE
  5
D0
100
AcDbEntity
  8
drum_paddles_front
  6
ByLayer
 62
  256
370
   -1
100
AcDbLine
 10
76.5
 20
61.49999999999999
 11
78
 21
61.49999999999999
  0
LINE
  5
D1
100
AcDbEntity
  8
drum_paddles_front
  6
ByLayer
 62
  256
370
   -1
100
AcDbLine
 10
78
 20
61.49999999999999
 11
78
 21
57.99999999999999
  0
LINE
  5
D2
100
AcDbEntity
  8
drum_paddles_front
  6
ByLayer
 62
  256
370
   -1
100
AcDbLine
 10
72.2079996155536
 20
75.48312588140068
 11
71.14733944377379
 21
74.42246570962085
  0
LINE
  5
D3
100
AcDbEntity
  8
drum_paddles_front
  6
ByLayer
 62
  256
370
   -1
100
AcDbLine
 10
71.14733944377379
 20
74.42246570962085
 11
68.67246570962087
 21
76.89733944377377
  0
LINE
  5
D4
100
AcDbEntity
  8
drum_paddles_front
  6
ByLayer
 62
  256
370
   -1
100
AcDbLine
 10
68.67246570962087
 20
76.89733944377377
 11
69.7331258814007
 21
77.95799961555359
  0
LINE
  5
D5
100
AcDbEntity
  8
drum_paddles_front
  6
ByLayer
 62
  256
370
   -1
100
AcDbLine
 10
69.7331258814007
 20
77.95799961555359
 11
72.2079996155536
 21
75.48312588140068
  0
LINE
  5
D6
100
AcDbEntity
  8
drum_paddles_side
  6
ByLayer
 62
  256
370
   -1
100
AcDbLine
 10
100
 20
82.25
 11
148
 21
82.25
  0
LINE
  5
D7
100
AcDbEntity
  8
drum_paddles_side
  6
ByLayer
 62
  256
370
   -1
100
AcDbLine
 10
100
 20
77.95799961555359
 11
148
 21
77.95799961555359
  0
LINE
  5
D8
100
AcDbEntity
  8
drum_paddles_side
  6
ByLayer
 62
  256
370
   -1
100
AcDbLine
 10
100
 20
75.48312588140068
 11
148
 21
75.48312588140068
  0
LINE
  5
D9
100
AcDbEntity
  8
drum_paddles_side
  6
ByLayer
 62
  256
370
   -1
100
AcDbLine
 10
100
 20
74.42246570962085
 11
148
 21
74.42246570962085
  0
LINE
  5
DA
100
AcDbEntity
  8
drum_paddles_side
  6
ByLayer
 62
  256
370
   -1
100
AcDbLine
 10
100
 20
61.49999999999999
 11
148
 21
61.49999999999999
  0
LINE
  5
DB
100
AcDbEntity
  8
drum_paddles_side
  6
ByLayer
 62
  256
370
   -1
100
AcDbLine
 10
100
 20
57.99999999999999
 11
148
 21
57.99999999999999
  0
LINE
  5
DC
100
AcDbEntity
  8
drum_paddles_side
  6
ByLayer
 62
  256
370
   -1
100
AcDbLine
 10
100
 20
45.07753429037913
 11
148
 21
45.07753429037913
  0
LINE
  5
DD
100
AcDbEntity
  8
drum_paddles_side
  6
ByLayer
 62
  256
370
   -1
100
AcDbLine
 10
100
 20
44.01687411859932
 11
148
 21
44.01687411859932
  0
LINE
  5
DE
100
AcDbEntity
  8
drum_paddles_side
  6
ByLayer
 62
  256
370
   -1
100
AcDbLine
 10
100
 20
41.5420003844464
 11
148
 21
41.5420003844464
  0
LINE
  5
DF
100
AcDbEntity
  8
drum_paddles_side
  6
ByLayer
 62
  256
370
   -1
100
AcDbLine
 10
100
 20
37.25
 11
148
 21
37.25
  0
DIMENSION
  5
E0
100
AcDbEntity
  8
dims
  6
ByLayer
 62
  256
370
   -1
100
AcDbDimension
  2
*D1
 10
78
 20
100
 30
0
 11
54.00000000000001
 21
102
 31
0
 70
   32
 71
    5
  3
Standard
 53
0
210
0
220
0
230
1
100
AcDbAlignedDimension
 13
30.00000000000001
 23
59.75
 33
0
 14
78
 24
59.74999999999999
 34
0
100
AcDbRotatedDimension
  0
DIMENSION
  5
E1
100
AcDbEntity
  8
dims
  6
ByLayer
 62
  256
370
   -1
100
AcDbDimension
  2
*D2
 10
175
 20
-2.939152317953648e-15
 30
0
 11
173
 21
18
 31
0
 70
   32
 71
    5
  3
Standard
 53
0
210
0
220
0
230
1
100
AcDbAlignedDimension
 13
152.5
 23
36
 33
0
 14
151
 24
0
 34
0
 50
90
100
AcDbRotatedDimension
  0
DIMENSION
  5
E2
100
AcDbEntity
  8
dims
  6
ByLayer
 62
  256
370
   -1
100
AcDbDimension
  2
*D3
 10
99.39463693807539
 20
90.00301769983206
 30
0
 11
124
 21
92.00301769983206
 31
0
 70
   32
 71
    5
  3
Standard
 53
0
210
0
220
0
230
1
100
AcDbAlignedDimension
 13
100
 23
84
 33
0
 14
148
 24
84
 34
0
100
AcDbRotatedDimension
  0
LINE
  5
E3
100
AcDbEntity
  8
anchors
  6
ByLayer
 62
  256
370
   -1
100
AcDbLine
 10
100
 20
100
 11
100
 21
101.875
  0
LINE
  5
E4
100
AcDbEntity
  8
frame_iso
  6
ByLayer
 62
  256
370
   -1
100
AcDbLine
 10
100
 20
100
 11
103.0310889132455
 21
101.75
  0
LINE
  5
E5
100
AcDbEntity
  8
frame_iso
  6
ByLayer
 62
  256
370
   -1
100
AcDbLine
 10
100
 20
100
 11
96.96891108675446
 21
101.75
  0
LINE
  5
E6
100
AcDbEntity
  8
frame_iso
  6
ByLayer
 62
  256
370
   -1
100
AcDbLine
 10
96.96891108675446
 20
137.75
 11
100
 21
136
  0
LINE
  5
E7
100
AcDbEntity
  8
frame_iso
  6
ByLayer
 62
  256
370
   -1
100
AcDbLine
 10
100
 20
136
 11
103.0310889132455
 21
137.75
  0
LINE
  5
E8
100
AcDbEntity
  8
frame_iso
  6
ByLayer
 62
  256
370
   -1
100
AcDbLine
 10
103.0310889132455
 20
137.75
 11
100
 21
139.5
  0
LINE
  5
E9
100
AcDbEntity
  8
frame_iso
  6
ByLayer
 62
  256
370
   -1
100
AcDbLine
 10
100
 20
139.5
 11
96.96891108675446
 21
137.75
  0
LINE
  5
EA
100
AcDbEntity
  8
frame_iso
  6
ByLayer
 62
  256
370
   -1
100
AcDbLine
 10
100
 20
136
 11
58.43078061834696
 21
160
  0
LINE
  5
EB
100
AcDbEntity
  8
frame_iso
  6
ByLayer
 62
  256
370
   -1
100
AcDbLine
 10
100
 20
136
 11
98.70096189432334
 21
135.25
  0
LINE
  5
EC
100
AcDbEntity
  8
frame_iso
  6
ByLayer
 62
  256
370
   -1
100
AcDbLine
 10
58.43078061834696
 20
160
 11
57.1317425126703
 21
159.25
  0
LINE
  5
ED
100
AcDbEntity
  8
frame_iso
  6
ByLayer
 62
  256
370
   -1
100
AcDbLine
 10
98.70096189432334
 20
135.25
 11
57.1317425126703
 21
159.25
  0
LINE
  5
EE
100
AcDbEntity
  8
frame_iso
  6
ByLayer
 62
  256
370
   -1
100
AcDbLine
 10
98.70096189432334
 20
129.75
 11
57.1317425126703
 21
153.75
  0
LINE
  5
EF
100
AcDbEntity
  8
frame_iso
  6
ByLayer
 62
  256
370
   -1
100
AcDbLine
 10
57.1317425126703
 20
159.25
 11
57.1317425126703
 21
153.75
  0
LINE
  5
F0
100
AcDbEntity
  8
frame_iso
  6
ByLayer
 62
  256
370
   -1
100
AcDbLine
 10
98.70096189432334
 20
135.25
 11
98.70096189432334
 21
129.75
  0
DIMENSION
  5
F1
100
AcDbEntity
  8
dims
  6
ByLayer
 62
  256
370
   -1
100
AcDbDimension
  2
*D4
 10
152.5
 20
-12.16136427858863
 30
0
 11
125.5
 21
-10.16136427858863
 31
0
 70
   32
 71
    5
 72
    0
  3
Standard
 53
0
210
0
220
0
230
1
100
AcDbAlignedDimension
 13
98.5
 23
1.875
 33
0
 14
152.5
 24
1.875
 34
0
100
AcDbRotatedDimension
  0
LINE
  5
F2
100
AcDbEntity
  8
frame_iso
  6
ByLayer
 62
  256
370
   -1
100
AcDbLine
 10
98.70096189432334
 20
135.25
 11
145.466333698683
 21
162.25
  0
LINE
  5
F3
100
AcDbEntity
  8
frame_iso
  6
ByLayer
 62
  256
370
   -1
100
AcDbLine
 10
98.70096189432334
 20
135.25
 11
100
 21
134.5
  0
LINE
  5
F4
100
AcDbEntity
  8
frame_iso
  6
ByLayer
 62
  256
370
   -1
100
AcDbLine
 10
98.70096189432334
 20
129.75
 11
100
 21
129
  0
LINE
  5
F5
100
AcDbEntity
  8
frame_iso
  6
ByLayer
 62
  256
370
   -1
100
AcDbLine
 10
145.466333698683
 20
162.25
 11
146.7653718043597
 21
161.5
  0
LINE
  5
F6
100
AcDbEntity
  8
frame_iso
  6
ByLayer
 62
  256
370
   -1
100
AcDbLine
 10
57.1317425126703
 20
159.25
 11
55.83270440699364
 21
160
  0
LINE
  5
F7
100
AcDbEntity
  8
frame_iso
  6
ByLayer
 62
  256
370
   -1
100
AcDbLine
 10
57.1317425126703
 20
153.75
 11
55.83270440699364
 21
154.5
  0
LINE
  5
F8
100
AcDbEntity
  8
frame_iso
  6
ByLayer
 62
  256
370
   -1
100
AcDbLine
 10
100
 20
129
 11
146.7653718043597
 21
156
  0
LINE
  5
F9
100
AcDbEntity
  8
frame_iso
  6
ByLayer
 62
  256
370
   -1
100
AcDbLine
 10
100
 20
134.5
 11
146.7653718043597
 21
161.5
  0
LINE
  5
FA
100
AcDbEntity
  8
frame_iso
  6
ByLayer
 62
  256
370
   -1
100
AcDbLine
 10
146.7653718043597
 20
156
 11
146.7653718043597
 21
161.5
  0
LINE
  5
FB
100
AcDbEntity
  8
frame_iso
  6
ByLayer
 62
  256
370
   -1
100
AcDbLine
 10
55.83270440699364
 20
154.5
 11
55.83270440699364
 21
160
  0
LINE
  5
FC
100
AcDbEntity
  8
frame_iso
  6
ByLayer
 62
  256
370
   -1
100
AcDbLine
 10
100
 20
129
 11
100
 21
134.5
  0
LINE
  5
FD
100
AcDbEntity
  8
frame_iso_deleted
  6
ByLayer
 62
  256
370
   -1
100
AcDbLine
 10
100
 20
130.5
 11
58.43078061834696
 21
154.5
  0
LINE
  5
FE
100
AcDbEntity
  8
frame_iso_deleted
  6
ByLayer
 62
  256
370
   -1
100
AcDbLine
 10
98.70096189432334
 20
129.75
 11
145.466333698683
 21
156.75
  0
LINE
  5
FF
100
AcDbEntity
  8
frame_iso_deleted
  6
ByLayer
 62
  256
370
   -1
100
AcDbLine
 10
55.83270440699364
 20
154.5
 11
102.5980762113533
 21
181.5
  0
LINE
  5
100
100
AcDbEntity
  8
frame_iso_deleted
  6
ByLayer
 62
  256
370
   -1
100
AcDbLine
 10
58.43078061834696
 20
160
 11
58.43078061834696
 21
154.5
  0
LINE
  5
101
100
AcDbEntity
  8
frame_iso_deleted
  6
ByLayer
 62
  256
370
   -1
100
AcDbLine
 10
100
 20
130.5
 11
98.70096189432334
 21
129.75
  0
LINE
  5
102
100
AcDbEntity
  8
frame_iso_deleted
  6
ByLayer
 62
  256
370
   -1
100
AcDbLine
 10
100
 20
136
 11
100
 21
130.5
  0
LINE
  5
103
100
AcDbEntity
  8
frame_iso
  6
ByLayer
 62
  256
370
   -1
100
AcDbLine
 10
96.96891108675446
 20
101.75
 11
96.96891108675446
 21
130.75
  0
LINE
  5
104
100
AcDbEntity
  8
frame_iso
  6
ByLayer
 62
  256
370
   -1
100
AcDbLine
 10
58.43078061834697
 20
160
 11
61.46186953159251
 21
161.75
  0
LINE
  5
105
100
AcDbEntity
  8
frame_iso
  6
ByLayer
 62
  256
370
   -1
100
AcDbLine
 10
58.43078061834697
 20
160
 11
61.46186953159251
 21
158.25
  0
LINE
  5
106
100
AcDbEntity
  8
frame_iso
  6
ByLayer
 62
  256
370
   -1
100
AcDbLine
 10
61.46186953159251
 20
158.25
 11
64.49295844483804
 21
160
  0
LINE
  5
107
100
AcDbEntity
  8
frame_iso
  6
ByLayer
 62
  256
370
   -1
100
AcDbLine
 10
61.46186953159251
 20
161.75
 11
64.49295844483804
 21
160
  0
LINE
  5
108
100
AcDbEntity
  8
frame_iso
  6
ByLayer
 62
  256
370
   -1
100
AcDbLine
 10
58.43078061834697
 20
153
 11
58.43078061834697
 21
124
  0
LINE
  5
109
100
AcDbEntity
  8
frame_iso
  6
ByLayer
 62
  256
370
   -1
100
AcDbLine
 10
61.46186953159251
 20
151.25
 11
61.46186953159251
 21
122.25
  0
LINE
  5
10A
100
AcDbEntity
  8
frame_iso
  6
ByLayer
 62
  256
370
   -1
100
AcDbLine
 10
64.49295844483804
 20
149.5
 11
64.49295844483804
 21
124
  0
LINE
  5
10B
100
AcDbEntity
  8
frame_iso
  6
ByLayer
 62
  256
370
   -1
100
AcDbLine
 10
64.49295844483804
 20
160
 11
64.49295844483805
 21
156.5
  0
LINE
  5
10C
100
AcDbEntity
  8
frame_iso_deleted
  6
ByLayer
 62
  256
370
   -1
100
AcDbLine
 10
145.466333698683
 20
156.75
 11
146.7653718043597
 21
156
  0
LINE
  5
10D
100
AcDbEntity
  8
frame_iso_deleted
  6
ByLayer
 62
  256
370
   -1
100
AcDbLine
 10
103.89711431703
 20
180.75
 11
102.5980762113533
 21
181.5
  0
LINE
  5
10E
100
AcDbEntity
  8
frame_iso_deleted
  6
ByLayer
 62
  256
370
   -1
100
AcDbLine
 10
102.5980762113533
 20
181.5
 11
102.5980762113533
 21
187
  0
LINE
  5
10F
100
AcDbEntity
  8
frame_iso
  6
ByLayer
 62
  256
370
   -1
100
AcDbLine
 10
61.46186953159251
 20
122.25
 11
58.43078061834697
 21
124
  0
LINE
  5
110
100
AcDbEntity
  8
frame_iso
  6
ByLayer
 62
  256
370
   -1
100
AcDbLine
 10
64.49295844483804
 20
124
 11
61.46186953159251
 21
122.25
  0
LINE
  5
111
100
AcDbEntity
  8
anchors
  6
ByLayer
 62
  256
370
   -1
100
AcDbLine
 10
100
 20
99.99999999999999
 11
100
 21
101.875
  0
LINE
  5
112
100
AcDbEntity
  8
frame_iso_deleted
  6
ByLayer
 62
  256
370
   -1
100
AcDbLine
 10
103.89711431703
 20
186.25
 11
103.89711431703
 21
150.25
  0
LINE
  5
113
100
AcDbEntity
  8
frame_iso_deleted
  6
ByLayer
 62
  256
370
   -1
100
AcDbLine
 10
103.89711431703
 20
150.25
 11
100.8660254037844
 21
148.5
  0
LINE
  5
114
100
AcDbEntity
  8
frame_iso_deleted
  6
ByLayer
 62
  256
370
   -1
100
AcDbLine
 10
145.466333698683
 20
126.25
 11
142.4352447854375
 21
128
  0
LINE
  5
115
100
AcDbEntity
  8
frame_iso_deleted
  6
ByLayer
 62
  256
370
   -1
100
AcDbLine
 10
103.89711431703
 20
150.25
 11
106.9282032302755
 21
148.5
  0
LINE
  5
116
100
AcDbEntity
  8
frame_iso_deleted
  6
ByLayer
 62
  256
370
   -1
100
AcDbLine
 10
103.89711431703
 20
180.75
 11
103.89711431703
 21
186.25
  0
LINE
  5
117
100
AcDbEntity
  8
frame_iso
  6
ByLayer
 62
  256
370
   -1
100
AcDbLine
 10
144.1672955930063
 20
125.5
 11
141.1362066797608
 21
123.75
  0
LINE
  5
118
100
AcDbEntity
  8
frame_iso
  6
ByLayer
 62
  256
370
   -1
100
AcDbLine
 10
99.56698729810775
 20
147.7500000000001
 11
102.5980762113533
 21
146.0000000000001
  0
LINE
  5
119
100
AcDbEntity
  8
frame_iso
  6
ByLayer
 62
  256
370
   -1
100
AcDbLine
 10
144.1672955930063
 20
161.5
 11
141.1362066797608
 21
163.25
  0
LINE
  5
11A
100
AcDbEntity
  8
frame_iso
  6
ByLayer
 62
  256
370
   -1
100
AcDbLine
 10
141.1362066797608
 20
163.25
 11
138.1051177665153
 21
161.5
  0
LINE
  5
11B
100
AcDbEntity
  8
frame_iso
  6
ByLayer
 62
  256
370
   -1
100
AcDbLine
 10
144.1672955930063
 20
161.5
 11
141.1362066797608
 21
159.75
  0
LINE
  5
11C
100
AcDbEntity
  8
frame_iso
  6
ByLayer
 62
  256
370
   -1
100
AcDbLine
 10
141.1362066797608
 20
159.75
 11
138.1051177665153
 21
161.5
  0
LINE
  5
11D
100
AcDbEntity
  8
frame_iso
  6
ByLayer
 62
  256
370
   -1
100
AcDbLine
 10
105.6291651245988
 20
147.7500000000001
 11
102.5980762113533
 21
146.0000000000001
  0
LINE
  5
11E
100
AcDbEntity
  8
frame_iso_deleted
  6
ByLayer
 62
  256
370
   -1
100
AcDbLine
 10
145.466333698683
 20
156.75
 11
103.89711431703
 21
180.75
  0
LINE
  5
11F
100
AcDbEntity
  8
frame_iso
  6
ByLayer
 62
  256
370
   -1
100
AcDbLine
 10
138.1051177665153
 20
161.5
 11
138.1051177665153
 21
158
  0
LINE
  5
120
100
AcDbEntity
  8
frame_iso
  6
ByLayer
 62
  256
370
   -1
100
AcDbLine
 10
57.13174251267034
 20
125.125
 11
57.13174251267034
 21
130.625
  0
LINE
  5
121
100
AcDbEntity
  8
frame_iso
  6
ByLayer
 62
  256
370
   -1
100
AcDbLine
 10
98.70096189432337
 20
101.125
 11
98.70096189432337
 21
106.625
  0
LINE
  5
122
100
AcDbEntity
  8
frame_iso
  6
ByLayer
 62
  256
370
   -1
100
AcDbLine
 10
57.13174251267034
 20
130.625
 11
55.83270440699368
 21
131.375
  0
LINE
  5
123
100
AcDbEntity
  8
frame_iso
  6
ByLayer
 62
  256
370
   -1
100
AcDbLine
 10
57.13174251267034
 20
125.125
 11
55.83270440699368
 21
125.875
  0
LINE
  5
124
100
AcDbEntity
  8
frame_iso
  6
ByLayer
 62
  256
370
   -1
100
AcDbLine
 10
145.4663336986831
 20
133.625
 11
146.7653718043597
 21
132.875
  0
LINE
  5
125
100
AcDbEntity
  8
frame_iso
  6
ByLayer
 62
  256
370
   -1
100
AcDbLine
 10
98.70096189432337
 20
106.625
 11
100
 21
105.875
  0
LINE
  5
126
100
AcDbEntity
  8
frame_iso
  6
ByLayer
 62
  256
370
   -1
100
AcDbLine
 10
98.70096189432337
 20
101.125
 11
100
 21
100.375
  0
LINE
  5
127
100
AcDbEntity
  8
frame_iso
  6
ByLayer
 62
  256
370
   -1
100
AcDbLine
 10
100
 20
105.875
 11
146.7653718043597
 21
132.875
  0
LINE
  5
128
100
AcDbEntity
  8
frame_iso
  6
ByLayer
 62
  256
370
   -1
100
AcDbLine
 10
100
 20
100.375
 11
146.7653718043597
 21
127.375
  0
LINE
  5
129
100
AcDbEntity
  8
frame_iso
  6
ByLayer
 62
  256
370
   -1
100
AcDbLine
 10
98.70096189432337
 20
106.625
 11
145.4663336986831
 21
133.625
  0
LINE
  5
12A
100
AcDbEntity
  8
frame_iso
  6
ByLayer
 62
  256
370
   -1
100
AcDbLine
 10
146.7653718043597
 20
127.375
 11
146.7653718043597
 21
132.875
  0
LINE
  5
12B
100
AcDbEntity
  8
frame_iso
  6
ByLayer
 62
  256
370
   -1
100
AcDbLine
 10
55.83270440699368
 20
125.875
 11
55.83270440699368
 21
131.375
  0
LINE
  5
12C
100
AcDbEntity
  8
frame_iso_deleted
  6
ByLayer
 62
  256
370
   -1
100
AcDbLine
 10
98.70096189432337
 20
101.125
 11
145.4663336986831
 21
128.125
  0
LINE
  5
12D
100
AcDbEntity
  8
frame_iso_deleted
  6
ByLayer
 62
  256
370
   -1
100
AcDbLine
 10
103.89711431703
 20
152.125
 11
103.89711431703
 21
157.625
  0
LINE
  5
12E
100
AcDbEntity
  8
frame_iso_deleted
  6
ByLayer
 62
  256
370
   -1
100
AcDbLine
 10
145.4663336986831
 20
128.125
 11
145.4663336986831
 21
133.625
  0
LINE
  5
12F
100
AcDbEntity
  8
frame_iso_deleted
  6
ByLayer
 62
  256
370
   -1
100
AcDbLine
 10
103.89711431703
 20
152.125
 11
102.5980762113534
 21
152.875
  0
LINE
  5
130
100
AcDbEntity
  8
frame_iso_deleted
  6
ByLayer
 62
  256
370
   -1
100
AcDbLine
 10
145.4663336986831
 20
128.125
 11
146.7653718043597
 21
127.375
  0
LINE
  5
131
100
AcDbEntity
  8
frame_iso_deleted
  6
ByLayer
 62
  256
370
   -1
100
AcDbLine
 10
55.83270440699368
 20
125.875
 11
102.5980762113534
 21
152.875
  0
LINE
  5
132
100
AcDbEntity
  8
frame_iso_deleted
  6
ByLayer
 62
  256
370
   -1
100
AcDbLine
 10
145.466333698683
 20
128.125
 11
103.89711431703
 21
152.125
  0
LINE
  5
133
100
AcDbEntity
  8
frame_iso
  6
ByLayer
 62
  256
370
   -1
100
AcDbLine
 10
100
 20
107.375
 11
100
 21
129
  0
LINE
  5
134
100
AcDbEntity
  8
frame_iso
  6
ByLayer
 62
  256
370
   -1
100
AcDbLine
 10
100
 20
100
 11
100
 21
100.375
  0
LINE
  5
135
100
AcDbEntity
  8
frame_iso
  6
ByLayer
 62
  256
370
   -1
100
AcDbLine
 10
100
 20
105.875
 11
100
 21
100.375
  0
LINE
  5
136
100
AcDbEntity
  8
frame_iso
  6
ByLayer
 62
  256
370
   -1
100
AcDbLine
 10
103.0310889132455
 20
109.125
 11
103.0310889132455
 21
130.75
  0
LINE
  5
137
100
AcDbEntity
  8
frame_iso
  6
ByLayer
 62
  256
370
   -1
100
AcDbLine
 10
103.0310889132455
 20
101.75
 11
103.0310889132455
 21
102.125
  0
LINE
  5
138
100
AcDbEntity
  8
frame_iso
  6
ByLayer
 62
  256
370
   -1
100
AcDbLine
 10
141.1362066797608
 20
123.75
 11
140.8114471533416
 21
123.9375
  0
LINE
  5
139
100
AcDbEntity
  8
frame_iso
  6
ByLayer
 62
  256
370
   -1
100
AcDbLine
 10
138.1051177665153
 20
151
 11
138.1051177665153
 21
129.375
  0
LINE
  5
13A
100
AcDbEntity
  8
frame_iso
  6
ByLayer
 62
  256
370
   -1
100
AcDbLine
 10
141.1362066797607
 20
152.7499999999999
 11
141.1362066797607
 21
131.1249999999999
  0
LINE
  5
13B
100
AcDbEntity
  8
frame_iso
  6
ByLayer
 62
  256
370
   -1
100
AcDbLine
 10
144.1672955930063
 20
154.4999999999999
 11
144.1672955930063
 21
132.8749999999999
  0
LINE
  5
13C
100
AcDbEntity
  8
frame_iso
  6
ByLayer
 62
  256
370
   -1
100
AcDbLine
 10
141.1362066797607
 20
124.125
 11
141.1362066797607
 21
123.75
  0
LINE
  5
13D
100
AcDbEntity
  8
frame_iso
  6
ByLayer
 62
  256
370
   -1
100
AcDbLine
 10
144.1672955930063
 20
125.875
 11
144.1672955930063
 21
125.5
  0
LINE
  5
13E
100
AcDbEntity
  8
frame_iso
  6
ByLayer
 62
  256
370
   -1
100
AcDbLine
 10
145.4663336986831
 20
133.625
 11
144.1672955930063
 21
134.3750000000001
  0
LINE
  5
13F
100
AcDbEntity
  8
frame_iso
  6
ByLayer
 62
  256
370
   -1
100
AcDbLine
 10
138.1051177665152
 20
130.8749999999999
 11
120.6763565153534
 21
140.9374999999999
  0
LINE
  5
140
100
AcDbEntity
  8
frame_iso
  6
ByLayer
 62
  256
370
   -1
100
AcDbLine
 10
138.1051177665152
 20
136.375
 11
125.4394962361679
 21
143.6875
  0
LINE
  5
141
100
AcDbEntity
  8
frame_iso
  6
ByLayer
 62
  256
370
   -1
100
AcDbLine
 10
138.1051177665152
 20
137.8750000000001
 11
126.7385343418446
 21
144.4375
  0
LINE
  5
142
100
AcDbEntity
  8
frame_iso_deleted
  6
ByLayer
 62
  256
370
   -1
100
AcDbLine
 10
103.89711431703
 20
157.625
 11
102.5980762113534
 21
158.375
  0
LINE
  5
143
100
AcDbEntity
  8
frame_iso
  6
ByLayer
 62
  256
370
   -1
100
AcDbLine
 10
114.6141786888624
 20
144.4375
 11
105.6291651245988
 21
149.625
  0
LINE
  5
144
100
AcDbEntity
  8
frame_iso
  6
ByLayer
 62
  256
370
   -1
100
AcDbLine
 10
57.13174251267034
 20
125.125
 11
58.43078061834697
 21
125.875
  0
LINE
  5
145
100
AcDbEntity
  8
frame_iso
  6
ByLayer
 62
  256
370
   -1
100
AcDbLine
 10
57.13174251267034
 20
130.625
 11
58.43078061834697
 21
131.375
  0
LINE
  5
146
100
AcDbEntity
  8
frame_iso
  6
ByLayer
 62
  256
370
   -1
100
AcDbLine
 10
55.83270440699368
 20
131.375
 11
58.43078061834697
 21
132.875
  0
LINE
  5
147
100
AcDbEntity
  8
frame_iso
  6
ByLayer
 62
  256
370
   -1
100
AcDbLine
 10
64.49295844483804
 20
129.375
 11
81.92171969599985
 21
139.4375
  0
LINE
  5
148
100
AcDbEntity
  8
frame_iso
  6
ByLayer
 62
  256
370
   -1
100
AcDbLine
 10
64.49295844483804
 20
134.875
 11
77.15857997518552
 21
142.1875
  0
LINE
  5
149
100
AcDbEntity
  8
frame_iso
  6
ByLayer
 62
  256
370
   -1
100
AcDbLine
 10
64.49295844483804
 20
136.375
 11
75.85954186950886
 21
142.9375
  0
LINE
  5
14A
100
AcDbEntity
  8
frame_iso
  6
ByLayer
 62
  256
370
   -1
100
AcDbLine
 10
87.98389752249096
 20
142.9375
 11
99.56698729810778
 21
149.625
  0
LINE
  5
14B
100
AcDbEntity
  8
anchors
  6
ByLayer
 62
  256
370
   -1
100
AcDbLine
 10
58.43078061834696
 20
160
 11
58.43078061834696
 21
208
  0
LINE
  5
14C
100
AcDbEntity
  8
anchors
  6
ByLayer
 62
  256
370
   -1
100
AcDbLine
 10
99.99999999999997
 20
136
 11
99.99999999999997
 21
184
  0
LINE
  5
14D
100
AcDbEntity
  8
anchors
  6
ByLayer
 62
  256
370
   -1
100
AcDbLine
 10
79.21539030917347
 20
148
 11
79.21539030917347
 21
196
  0
LINE
  5
14E
100
AcDbEntity
  8
anchors
  6
ByLayer
 62
  256
370
   -1
100
AcDbLine
 10
58.43078061834696
 20
208
 11
99.99999999999997
 21
184
  0
LINE
  5
14F
100
AcDbEntity
  8
anchors
  6
ByLayer
 62
  256
370
   -1
100
AcDbLine
 10
58.43078061834696
 20
160
 11
99.99999999999997
 21
136
  0
ELLIPSE
  5
150
100
AcDbEntity
  8
drum_iso
  6
ByLayer
 62
  256
370
   -1
100
AcDbEllipse
 10
79.21539030917347
 20
172
 30
0
 11
-14.69693845669909
 21
25.45584412271567
 31
0
 40
0.5773502691896253
 41
0
 42
6.283185307179586
  0
LINE
  5
151
100
AcDbEntity
  8
anchors
  6
ByLayer
 62
  256
370
   -1
100
AcDbLine
 10
100
 20
136
 11
141.5692193816531
 21
160
  0
LINE
  5
152
100
AcDbEntity
  8
drum_iso
  6
ByLayer
 62
  256
370
   -1
100
AcDbLine
 10
105.6546585322352
 20
221.2058441227156
 11
64.5184518524744
 21
197.4558441227156
  0
LINE
  5
153
100
AcDbEntity
  8
drum_iso
  6
ByLayer
 62
  256
370
   -1
100
AcDbLine
 10
93.91232876587254
 20
146.5441558772843
 11
135.0485354456333
 21
170.2941558772843
  0
ELLIPSE
  5
154
100
AcDbEntity
  8
drum_iso
  6
ByLayer
 62
  256
370
   -1
100
AcDbEllipse
 10
120.3515969889343
 20
195.75
 30
0
 11
-14.69693845669909
 21
25.45584412271567
 31
0
 40
0.5773502691896253
 41
6.283185271358837
 42
6.283185343000334
  0
ELLIPSE
  5
155
100
AcDbEntity
  8
drum_iso
  6
ByLayer
 62
  256
370
   -1
100
AcDbEllipse
 10
120.3515969889343
 20
195.75
 30
0
 11
-14.69693845669909
 21
25.45584412271567
 31
0
 40
0.5773502691896253
 41
3.141592653589792
 42
6.283185271358837
  0
LINE
  5
156
100
AcDbEntity
  8
frame_iso
  6
ByLayer
 62
  256
370
   -1
100
AcDbLine
 10
55.83270440699364
 20
160
 11
63.8832922934963
 21
164.6480090834071
  0
LINE
  5
157
100
AcDbEntity
  8
frame_iso
  6
ByLayer
 62
  256
370
   -1
100
AcDbLine
 10
57.1317425126703
 20
159.25
 11
64.51845185247444
 21
163.5147186257615
  0
LINE
  5
158
100
AcDbEntity
  8
frame_iso
  6
ByLayer
 62
  256
370
   -1
100
AcDbLine
 10
64.49295844483802
 20
158
 11
67.09426645427388
 21
159.5018658794929
  0
LINE
  5
159
100
AcDbEntity
  8
frame_iso_hidden
  6
ByLayer
 62
  256
370
   -1
100
AcDbLine
 10
63.8832922934963
 20
164.6480090834071
 11
102.5980762113533
 21
187
  0
LINE
  5
15A
100
AcDbEntity
  8
frame_iso_hidden
  6
ByLayer
 62
  256
370
   -1
100
AcDbLine
 10
64.51845185247444
 20
163.5147186257615
 11
103.89711431703
 21
186.25
  0
LINE
  5
15B
100
AcDbEntity
  8
frame_iso_hidden
  6
ByLayer
 62
  256
370
   -1
100
AcDbLine
 10
67.09426645427388
 20
159.5018658794929
 11
99.56698729810778
 21
178.25
  0
LINE
  5
15C
100
AcDbEntity
  8
frame_iso
  6
ByLayer
 62
  256
370
   -1
100
AcDbLine
 10
145.466333698683
 20
162.25
 11
133.2909912304281
 21
169.2794372515229
  0
LINE
  5
15D
100
AcDbEntity
  8
frame_iso
  6
ByLayer
 62
  256
370
   -1
100
AcDbLine
 10
144.1672955930063
 20
161.5
 11
131.9919531247514
 21
168.5294372515229
  0
LINE
  5
15E
100
AcDbEntity
  8
frame_iso
  6
ByLayer
 62
  256
370
   -1
100
AcDbLine
 10
138.1051177665153
 20
159.5
 11
127.228813403937
 21
165.7794372515229
  0
LINE
  5
15F
100
AcDbEntity
  8
frame_iso_hidden
  6
ByLayer
 62
  256
370
   -1
100
AcDbLine
 10
133.2909912304281
 20
169.2794372515229
 11
103.89711431703
 21
186.25
  0
LINE
  5
160
100
AcDbEntity
  8
frame_iso_hidden
  6
ByLayer
 62
  256
370
   -1
100
AcDbLine
 10
131.9919531247514
 20
168.5294372515229
 11
102.5980762113533
 21
185.5000000000001
  0
LINE
  5
161
100
AcDbEntity
  8
frame_iso_hidden
  6
ByLayer
 62
  256
370
   -1
100
AcDbLine
 10
127.228813403937
 20
165.7794372515229
 11
105.6291651245988
 21
178.25
  0
LINE
  5
162
100
AcDbEntity
  8
frame_iso_hidden
  6
ByLayer
 62
  256
370
   -1
100
AcDbLine
 10
103.89711431703
 20
186.25
 11
102.5980762113533
 21
187
  0
LINE
  5
163
100
AcDbEntity
  8
frame_iso_hidden
  6
ByLayer
 62
  256
370
   -1
100
AcDbLine
 10
102.5980762113533
 20
185.5000000000001
 11
105.6291651245988
 21
183.7500000000001
  0
LINE
  5
164
100
AcDbEntity
  8
frame_iso_hidden
  6
ByLayer
 62
  256
370
   -1
100
AcDbLine
 10
105.6291651245988
 20
183.7500000000001
 11
102.5980762113533
 21
182.0000000000001
  0
LINE
  5
165
100
AcDbEntity
  8
frame_iso_hidden
  6
ByLayer
 62
  256
370
   -1
100
AcDbLine
 10
102.5980762113533
 20
185.5000000000001
 11
99.56698729810773
 21
183.7500000000001
  0
LINE
  5
166
100
AcDbEntity
  8
frame_iso_hidden
  6
ByLayer
 62
  256
370
   -1
100
AcDbLine
 10
102.5980762113533
 20
182.0000000000001
 11
99.56698729810775
 21
183.7500000000001
  0
LINE
  5
167
100
AcDbEntity
  8
frame_iso
  6
ByLayer
 62
  256
370
   -1
100
AcDbLine
 10
99.56698729810778
 20
149.8088745030458
 11
99.56698729810778
 21
147.7500000000001
  0
LINE
  5
168
100
AcDbEntity
  8
frame_iso_deleted
  6
ByLayer
 62
  256
370
   -1
100
AcDbLine
 10
102.5980762113533
 20
152.8750000000001
 11
102.5980762113533
 21
158.3750000000001
  0
LINE
  5
169
100
AcDbEntity
  8
frame_iso
  6
ByLayer
 62
  256
370
   -1
100
AcDbLine
 10
102.5980762113533
 20
151.5588745030457
 11
102.5980762113533
 21
146.0000000000001
  0
LINE
  5
16A
100
AcDbEntity
  8
frame_iso
  6
ByLayer
 62
  256
370
   -1
100
AcDbLine
 10
105.6291651245988
 20
153.3088745030457
 11
105.6291651245988
 21
147.7500000000001
  0
LINE
  5
16B
100
AcDbEntity
  8
frame_iso_hidden
  6
ByLayer
 62
  256
370
   -1
100
AcDbLine
 10
99.56698729810778
 20
183.7500000000001
 11
99.56698729810778
 21
149.8088745030458
  0
LINE
  5
16C
100
AcDbEntity
  8
frame_iso_hidden
  6
ByLayer
 62
  256
370
   -1
100
AcDbLine
 10
102.5980762113533
 20
182.0000000000001
 11
102.5980762113533
 21
151.5588745030457
  0
LINE
  5
16D
100
AcDbEntity
  8
frame_iso_hidden
  6
ByLayer
 62
  256
370
   -1
100
AcDbLine
 10
105.6291651245988
 20
183.7500000000001
 11
105.6291651245988
 21
153.3088745030457
  0
LINE
  5
16E
100
AcDbEntity
  8
frame_iso
  6
ByLayer
 62
  256
370
   -1
100
AcDbLine
 10
81.92171969599988
 20
146.4375
 11
82.12661141859191
 21
146.5557942911932
  0
LINE
  5
16F
100
AcDbEntity
  8
frame_iso
  6
ByLayer
 62
  256
370
   -1
100
AcDbLine
 10
83.22075780167654
 20
145.6875
 11
83.7132745066631
 21
145.9718546522044
  0
LINE
  5
170
100
AcDbEntity
  8
frame_iso_hidden
  6
ByLayer
 62
  256
370
   -1
100
AcDbLine
 10
82.12661141859191
 20
146.5557942911932
 11
99.56698729810778
 21
156.625
  0
LINE
  5
171
100
AcDbEntity
  8
frame_iso_hidden
  6
ByLayer
 62
  256
370
   -1
100
AcDbLine
 10
83.7132745066631
 20
145.9718546522044
 11
99.56698729810778
 21
155.125
  0
LINE
  5
172
100
AcDbEntity
  8
frame_iso
  6
ByLayer
 62
  256
370
   -1
100
AcDbLine
 10
119.3773184096768
 20
147.1875
 11
107.2019759414218
 21
154.2169372515229
  0
LINE
  5
173
100
AcDbEntity
  8
frame_iso
  6
ByLayer
 62
  256
370
   -1
100
AcDbLine
 10
120.6763565153535
 20
147.9375
 11
108.5010140470986
 21
154.9669372515229
  0
LINE
  5
174
100
AcDbEntity
  8
frame_iso_hidden
  6
ByLayer
 62
  256
370
   -1
100
AcDbLine
 10
107.2019759414218
 20
154.2169372515229
 11
105.6291651245988
 21
155.125
  0
LINE
  5
175
100
AcDbEntity
  8
frame_iso_hidden
  6
ByLayer
 62
  256
370
   -1
100
AcDbLine
 10
108.5010140470986
 20
154.9669372515229
 11
105.6291651245988
 21
156.6250000000002
  0
LINE
  5
176
100
AcDbEntity
  8
anchors
  6
ByLayer
 62
  256
370
   -1
100
AcDbLine
 10
79.21539030917347
 20
172
 11
58.43078061834697
 21
183.9999924249632
  0
LINE
  5
177
100
AcDbEntity
  8
anchors
  6
ByLayer
 62
  256
370
   -1
100
AcDbLine
 10
58.43078061834697
 20
183.9999924249632
 11
99.99999999999996
 21
160.0000068408323
  0
LINE
  5
178
100
AcDbEntity
  8
anchors
  6
ByLayer
 62
  256
370
   -1
100
AcDbLine
 10
64.43078061834696
 20
160
 11
64.43078061834696
 21
208
  0
LINE
  5
179
100
AcDbEntity
  8
anchors
  6
ByLayer
 62
  256
370
   -1
100
AcDbLine
 10
93.99999999999997
 20
136
 11
93.99999999999997
 21
184
  0
LINE
  5
17A
100
AcDbEntity
  8
anchors
  6
ByLayer
 62
  256
370
   -1
100
AcDbLine
 10
55.43078061834696
 20
202.8038475772934
 11
96.99999999999997
 21
178.8038475772934
  0
LINE
  5
17B
100
AcDbEntity
  8
anchors
  6
ByLayer
 62
  256
370
   -1
100
AcDbLine
 10
61.43078061834696
 20
165.1961524227066
 11
103
 21
141.1961524227066
  0
ELLIPSE
  5
17C
100
AcDbEntity
  8
drum_iso
  6
ByLayer
 62
  256
370
   -1
100
AcDbEllipse
 10
79.21539030917342
 20
172
 30
0
 11
-10.45429776957971
 21
18.10737489436619
 31
0
 40
0.5773502691896241
 41
0
 42
6.283185307179586
  0
MTEXT
  5
17D
100
AcDbEntity
  8
0
  6
ByLayer
 62
  256
370
   -1
100
AcDbMText
 10
103.0409310211262
 20
109.1420643067748
 30
0
 40
1e-05
 41
5.222222222222347e-05
 71
    1
 72
    1
  1
JQC2023
  7
standard
210
0
220
0
230
1
 50
30
 73
    2
 44
1
  0
ENDSEC
  0
SECTION
  2
OBJECTS
  0
DICTIONARY
  5
C
330
0
100
AcDbDictionary
281
    1
  3
ACAD_GROUP
350
D
  0
DICTIONARY
  5
D
330
C
100
AcDbDictionary
281
    1
  0
ENDSEC
  0
EOF
