  0
SECTION
  2
HEADER
  9
$ACADVER
  1
AC1009
  9
$INSBASE
 10
0.0
 20
0.0
 30
0.0
  9
$EXTMIN
 10
66.462986864926265
 20
76.908579386729798
 30
0.0
  9
$EXTMAX
 10
2176.0802197582661
 20
1232.219992021377
 30
1.0
  9
$LIMMIN
 10
0.0
 20
0.0
  9
$LIMMAX
 10
420.0
 20
297.0
  9
$ORTHOMODE
 70
     0
  9
$REGENMODE
 70
     1
  9
$FILLMODE
 70
     1
  9
$QTEXTMODE
 70
     0
  9
$MIRRTEXT
 70
     0
  9
$DRAGMODE
 70
     2
  9
$LTSCALE
 40
1.0
  9
$OSMODE
 70
   295
  9
$ATTMODE
 70
     1
  9
$TEXTSIZE
 40
2.5
  9
$TRACEWID
 40
1.0
  9
$TEXTSTYLE
  7
STANDARD
  9
$CLAYER
  8
0
  9
$CELTYPE
  6
BYLAYER
  9
$CECOLOR
 62
   256
  9
$DIMSCALE
 40
1.0
  9
$DIMASZ
 40
2.5
  9
$DIMEXO
 40
0.625
  9
$DIMDLI
 40
3.75
  9
$DIMRND
 40
0.0
  9
$DIMDLE
 40
0.0
  9
$DIMEXE
 40
1.25
  9
$DIMTP
 40
0.0
  9
$DIMTM
 40
0.0
  9
$DIMTXT
 40
2.5
  9
$DIMCEN
 40
2.5
  9
$DIMTSZ
 40
0.0
  9
$DIMTOL
 70
     0
  9
$DIMLIM
 70
     0
  9
$DIMTIH
 70
     0
  9
$DIMTOH
 70
     0
  9
$DIMSE1
 70
     0
  9
$DIMSE2
 70
     0
  9
$DIMTAD
 70
     1
  9
$DIMZIN
 70
     8
  9
$DIMBLK
  1

  9
$DIMASO
 70
     1
  9
$DIMSHO
 70
     1
  9
$DIMPOST
  1

  9
$DIMAPOST
  1

  9
$DIMALT
 70
     0
  9
$DIMALTD
 70
     3
  9
$DIMALTF
 40
0.03937007874016
  9
$DIMLFAC
 40
1.0
  9
$DIMTOFL
 70
     1
  9
$DIMTVP
 40
0.0
  9
$DIMTIX
 70
     0
  9
$DIMSOXD
 70
     0
  9
$DIMSAH
 70
     0
  9
$DIMBLK1
  1

  9
$DIMBLK2
  1

  9
$DIMSTYLE
  2
ISO-25
  9
$DIMCLRD
 70
     0
  9
$DIMCLRE
 70
     0
  9
$DIMCLRT
 70
     0
  9
$DIMTFAC
 40
1.0
  9
$DIMGAP
 40
0.625
  9
$LUNITS
 70
     2
  9
$LUPREC
 70
     4
  9
$SKETCHINC
 40
1.0
  9
$FILLETRAD
 40
0.0
  9
$AUNITS
 70
     0
  9
$AUPREC
 70
     0
  9
$MENU
  1
.
  9
$ELEVATION
 40
0.0
  9
$PELEVATION
 40
0.0
  9
$THICKNESS
 40
0.0
  9
$LIMCHECK
 70
     0
  9
$BLIPMODE
 70
     0
  9
$CHAMFERA
 40
0.0
  9
$CHAMFERB
 40
0.0
  9
$SKPOLY
 70
     0
  9
$TDCREATE
 40
2457075.8827963308
  9
$TDUPDATE
 40
2457081.5642945599
  9
$TDINDWG
 40
0.0596431597
  9
$TDUSRTIMER
 40
0.059643125
  9
$USRTIMER
 70
     1
  9
$ANGBASE
 50
0.0
  9
$ANGDIR
 70
     0
  9
$PDMODE
 70
     0
  9
$PDSIZE
 40
0.0
  9
$PLINEWID
 40
0.0
  9
$COORDS
 70
     1
  9
$SPLFRAME
 70
     0
  9
$SPLINETYPE
 70
     6
  9
$SPLINESEGS
 70
     8
  9
$ATTDIA
 70
     1
  9
$ATTREQ
 70
     1
  9
$HANDLING
 70
     1
  9
$HANDSEED
  5
855
  9
$SURFTAB1
 70
     6
  9
$SURFTAB2
 70
     6
  9
$SURFTYPE
 70
     6
  9
$SURFU
 70
     6
  9
$SURFV
 70
     6
  9
$UCSNAME
  2

  9
$UCSORG
 10
66.462986864926265
 20
76.908579386729798
 30
0.0
  9
$UCSXDIR
 10
1.0
 20
0.0
 30
0.0
  9
$UCSYDIR
 10
0.0
 20
1.0
 30
0.0
  9
$PUCSNAME
  2

  9
$PUCSORG
 10
0.0
 20
0.0
 30
0.0
  9
$PUCSXDIR
 10
1.0
 20
0.0
 30
0.0
  9
$PUCSYDIR
 10
0.0
 20
1.0
 30
0.0
  9
$USERI1
 70
     0
  9
$USERI2
 70
     0
  9
$USERI3
 70
     0
  9
$USERI4
 70
     0
  9
$USERI5
 70
     0
  9
$USERR1
 40
0.0
  9
$USERR2
 40
0.0
  9
$USERR3
 40
0.0
  9
$USERR4
 40
0.0
  9
$USERR5
 40
0.0
  9
$WORLDVIEW
 70
     1
  9
$SHADEDGE
 70
     3
  9
$SHADEDIF
 70
    70
  9
$TILEMODE
 70
     1
  9
$MAXACTVP
 70
    64
  9
$PLIMCHECK
 70
     0
  9
$PEXTMIN
 10
0.0
 20
0.0
 30
0.0
  9
$PEXTMAX
 10
0.0
 20
0.0
 30
0.0
  9
$PLIMMIN
 10
0.0
 20
0.0
  9
$PLIMMAX
 10
12.0
 20
9.0
  9
$UNITMODE
 70
     0
  9
$VISRETAIN
 70
     1
  9
$PLINEGEN
 70
     0
  9
$PSLTSCALE
 70
     1
  0
ENDSEC
  0
SECTION
  2
TABLES
  0
TABLE
  2
VPORT
 70
     1
  0
VPORT
  2
*ACTIVE
 70
     0
 10
0.0
 20
0.0
 11
1.0
 21
1.0
 12
1172.290438580452
 22
616.89018728308338
 13
0.0
 23
0.0
 14
10.0
 24
10.0
 15
10.0
 25
10.0
 16
0.0
 26
0.0
 36
1.0
 17
0.0
 27
0.0
 37
0.0
 40
1551.5629871854369
 41
2.0649422124380838
 42
50.0
 43
0.0
 44
0.0
 50
0.0
 51
0.0
 71
     0
 72
  1000
 73
     1
 74
     3
 75
     0
 76
     1
 77
     0
 78
     0
  0
ENDTAB
  0
TABLE
  2
LTYPE
 70
     2
  0
LTYPE
  2
CONTINUOUS
 70
     0
  3
Solid line
 72
    65
 73
     0
 40
0.0
  0
ENDTAB
  0
TABLE
  2
LAYER
 70
     4
  0
LAYER
  2
0
 70
     0
 62
     7
  6
CONTINUOUS
  0
LAYER
  2
IV_INTERIOR_PROFILES
 70
     0
 62
     7
  6
CONTINUOUS
  0
LAYER
  2
IV_OUTER_PROFILE
 70
     0
 62
     7
  6
CONTINUOUS
  0
LAYER
  2
DEFPOINTS
 70
     0
 62
     7
  6
CONTINUOUS
  0
ENDTAB
  0
TABLE
  2
STYLE
 70
     3
  0
STYLE
  2
STANDARD
 70
     0
 40
0.0
 41
1.0
 50
0.0
 71
     0
 42
2.5
  3
txt
  4

  0
STYLE
  2
ANNOTATIVE
 70
     0
 40
0.0
 41
1.0
 50
0.0
 71
     0
 42
2.5
  3
txt
  4

  0
ENDTAB
  0
TABLE
  2
VIEW
 70
     0
  0
ENDTAB
  0
TABLE
  2
UCS
 70
     0
  0
ENDTAB
  0
TABLE
  2
APPID
 70
    10
  0
APPID
  2
ACAD
 70
     0
  0
APPID
  2
ACADANNOTATIVE
 70
     0
  0
APPID
  2
ACAD_PSEXT
 70
     0
  0
APPID
  2
ACADANNOPO
 70
     0
  0
APPID
  2
ACAD_DSTYLE_DIMJAG
 70
     0
  0
APPID
  2
ACAD_DSTYLE_DIMTALN
 70
     0
  0
APPID
  2
ACAD_MLEADERVER
 70
     0
  0
APPID
  2
ACAD_NAV_VCDISPLAY
 70
     0
  0
APPID
  2
ACAD_EXEMPT_FROM_CAD_STANDARDS
 70
     0
  0
APPID
  2
CONTENTBLOCKICON
 70
     0
  0
ENDTAB
  0
TABLE
  2
DIMSTYLE
 70
     5
  0
DIMSTYLE
  2
STANDARD
 70
     0
  3

  4

  5

  6

  7

 40
1.0
 41
0.18
 42
0.0625
 43
0.38
 44
0.18
 45
0.0
 46
0.0
 47
0.0
 48
0.0
140
0.18
141
0.09
142
0.0
143
25.399999999999999
144
1.0
145
0.0
146
1.0
147
0.09
 71
     0
 72
     0
 73
     1
 74
     1
 75
     0
 76
     0
 77
     0
 78
     0
170
     0
171
     2
172
     0
173
     0
174
     0
175
     0
176
     0
177
     0
178
     0
  0
DIMSTYLE
  2
ANNOTATIVE
 70
     0
  3

  4

  5

  6

  7

 40
0.0
 41
2.5
 42
0.625
 43
3.75
 44
1.25
 45
0.0
 46
0.0
 47
0.0
 48
0.0
140
2.5
141
2.5
142
0.0
143
0.03937007874016
144
1.0
145
0.0
146
1.0
147
0.625
 71
     0
 72
     0
 73
     0
 74
     0
 75
     0
 76
     0
 77
     1
 78
     8
170
     0
171
     3
172
     1
173
     0
174
     0
175
     0
176
     0
177
     0
178
     0
  0
DIMSTYLE
  2
ISO-25
 70
     0
  3

  4

  5

  6

  7

 40
1.0
 41
2.5
 42
0.625
 43
3.75
 44
1.25
 45
0.0
 46
0.0
 47
0.0
 48
0.0
140
2.5
141
2.5
142
0.0
143
0.03937007874016
144
1.0
145
0.0
146
1.0
147
0.625
 71
     0
 72
     0
 73
     0
 74
     0
 75
     0
 76
     0
 77
     1
 78
     8
170
     0
171
     3
172
     1
173
     0
174
     0
175
     0
176
     0
177
     0
178
     0
  0
ENDTAB
  0
ENDSEC
  0
SECTION
  2
BLOCKS
  0
BLOCK
  8
0
  2
$MODEL_SPACE
 70
     0
 10
0.0
 20
0.0
 30
0.0
  3
$MODEL_SPACE
  1

  0
ENDBLK
  5
672
  8
0
  0
BLOCK
 67
     1
  8
0
  2
$PAPER_SPACE
 70
     0
 10
0.0
 20
0.0
 30
0.0
  3
$PAPER_SPACE
  1

  0
ENDBLK
  5
66E
 67
     1
  8
0
  0
BLOCK
  8
0
  2
CHAIN-SIDE-PLATE
 70
     0
 10
0.0
 20
0.0
 30
0.0
  3
CHAIN-SIDE-PLATE
  1

  0
CIRCLE
  5
2CF
  8
IV_INTERIOR_PROFILES
 10
0.0000000000000426
 20
0.0
 30
0.0
 40
1.3249999999999991
  0
CIRCLE
  5
2D0
  8
IV_INTERIOR_PROFILES
 10
50.000000000000028
 20
0.0
 30
0.0
 40
1.3249999999999991
  0
POLYLINE
  5
2D1
  8
IV_OUTER_PROFILE
 66
     1
 10
0.0
 20
0.0
 30
0.0
 70
   129
  0
VERTEX
  5
792
  8
IV_OUTER_PROFILE
 10
6.1559972452342731
 20
11.11250000000001
 30
0.0
 42
-0.2679491924311222
  0
VERTEX
  5
793
  8
IV_OUTER_PROFILE
 10
8.0829037686546457
 20
12.224999999999961
 30
0.0
  0
VERTEX
  5
794
  8
IV_OUTER_PROFILE
 10
41.917096231345617
 20
12.224999999999961
 30
0.0
 42
-0.267949192431128
  0
VERTEX
  5
795
  8
IV_OUTER_PROFILE
 10
43.844002754766031
 20
11.112499999999899
 30
0.0
  0
VERTEX
  5
796
  8
IV_OUTER_PROFILE
 10
47.903567868373791
 20
4.0811269665969121
 30
0.0
 42
0.2982166266986014
  0
VERTEX
  5
797
  8
IV_OUTER_PROFILE
 10
49.639292109258832
 20
3.2047643934549792
 30
0.0
 42
-1.0576720581338781
  0
VERTEX
  5
798
  8
IV_OUTER_PROFILE
 10
50.000000000000028
 20
-3.225000000000021
 30
0.0
  0
VERTEX
  5
799
  8
IV_OUTER_PROFILE
 10
0.0000000000000426
 20
-3.225000000000021
 30
0.0
 42
-1.0576720581338821
  0
VERTEX
  5
79A
  8
IV_OUTER_PROFILE
 10
0.3607078907412671
 20
3.2047643934549792
 30
0.0
 42
0.2982166266985979
  0
VERTEX
  5
79B
  8
IV_OUTER_PROFILE
 10
2.096432131626301
 20
4.0811269665969121
 30
0.0
  0
SEQEND
  5
79C
  8
IV_OUTER_PROFILE
  0
POLYLINE
  5
2D2
  8
IV_INTERIOR_PROFILES
 66
     1
 10
0.0
 20
0.0
 30
0.0
 70
   129
  0
VERTEX
  5
79D
  8
IV_INTERIOR_PROFILES
 10
15.12500000000013
 20
-0.8749999999999429
 30
0.0
  0
VERTEX
  5
79E
  8
IV_INTERIOR_PROFILES
 10
15.12500000000013
 20
0.8749999999998863
 30
0.0
  0
VERTEX
  5
79F
  8
IV_INTERIOR_PROFILES
 10
34.875000000000178
 20
0.8749999999998863
 30
0.0
  0
VERTEX
  5
7A0
  8
IV_INTERIOR_PROFILES
 10
34.875000000000178
 20
-0.8749999999999429
 30
0.0
  0
SEQEND
  5
7A1
  8
IV_INTERIOR_PROFILES
  0
POLYLINE
  5
2D3
  8
IV_INTERIOR_PROFILES
 66
     1
 10
0.0
 20
0.0
 30
0.0
 70
   129
  0
VERTEX
  5
7A2
  8
IV_INTERIOR_PROFILES
 10
15.12500000000013
 20
8.1250000000000568
 30
0.0
  0
VERTEX
  5
7A3
  8
IV_INTERIOR_PROFILES
 10
15.12500000000013
 20
9.8749999999998863
 30
0.0
  0
VERTEX
  5
7A4
  8
IV_INTERIOR_PROFILES
 10
34.875000000000178
 20
9.8749999999998863
 30
0.0
  0
VERTEX
  5
7A5
  8
IV_INTERIOR_PROFILES
 10
34.875000000000178
 20
8.1250000000000568
 30
0.0
  0
SEQEND
  5
7A6
  8
IV_INTERIOR_PROFILES
  0
ENDBLK
  5
2CE
  8
0
  0
BLOCK
  8
0
  2
CHAIN-WIDE-PLATE
 70
     0
 10
0.0
 20
0.0
 30
0.0
  3
CHAIN-WIDE-PLATE
  1

  0
POLYLINE
  5
2D8
  8
IV_OUTER_PROFILE
 66
     1
 10
0.0
 20
0.0
 30
0.0
 70
   129
  0
VERTEX
  5
7A7
  8
IV_OUTER_PROFILE
 10
9.0
 20
-22.450000000000038
 30
0.0
  0
VERTEX
  5
7A8
  8
IV_OUTER_PROFILE
 10
9.0
 20
-20.450000000000049
 30
0.0
  0
VERTEX
  5
7A9
  8
IV_OUTER_PROFILE
 10
0.0
 20
-20.450000000000049
 30
0.0
  0
VERTEX
  5
7AA
  8
IV_OUTER_PROFILE
 10
0.0
 20
0.0
 30
0.0
  0
VERTEX
  5
7AB
  8
IV_OUTER_PROFILE
 10
9.0
 20
0.0
 30
0.0
  0
VERTEX
  5
7AC
  8
IV_OUTER_PROFILE
 10
9.0
 20
2.0
 30
0.0
  0
VERTEX
  5
7AD
  8
IV_OUTER_PROFILE
 10
29.450000000000021
 20
2.0
 30
0.0
  0
VERTEX
  5
7AE
  8
IV_OUTER_PROFILE
 10
29.450000000000021
 20
-0.0000000000001137
 30
0.0
  0
VERTEX
  5
7AF
  8
IV_OUTER_PROFILE
 10
38.450000000000017
 20
0.0
 30
0.0
  0
VERTEX
  5
7B0
  8
IV_OUTER_PROFILE
 10
38.450000000000017
 20
-20.450000000000049
 30
0.0
  0
VERTEX
  5
7B1
  8
IV_OUTER_PROFILE
 10
29.450000000000021
 20
-20.450000000000049
 30
0.0
  0
VERTEX
  5
7B2
  8
IV_OUTER_PROFILE
 10
29.450000000000021
 20
-22.450000000000038
 30
0.0
  0
SEQEND
  5
7B3
  8
IV_OUTER_PROFILE
  0
ENDBLK
  5
2D7
  8
0
  0
BLOCK
  8
0
  2
CHAIN-THIN-PLATE
 70
     0
 10
0.0
 20
0.0
 30
0.0
  3
CHAIN-THIN-PLATE
  1

  0
POLYLINE
  5
2DD
  8
IV_OUTER_PROFILE
 66
     1
 10
0.0
 20
0.0
 30
0.0
 70
   129
  0
VERTEX
  5
7B4
  8
IV_OUTER_PROFILE
 10
9.0
 20
-18.449999999999921
 30
0.0
  0
VERTEX
  5
7B5
  8
IV_OUTER_PROFILE
 10
9.0
 20
-16.449999999999928
 30
0.0
  0
VERTEX
  5
7B6
  8
IV_OUTER_PROFILE
 10
0.0
 20
-16.449999999999928
 30
0.0
  0
VERTEX
  5
7B7
  8
IV_OUTER_PROFILE
 10
0.0
 20
0.0
 30
0.0
  0
VERTEX
  5
7B8
  8
IV_OUTER_PROFILE
 10
9.0
 20
0.0
 30
0.0
  0
VERTEX
  5
7B9
  8
IV_OUTER_PROFILE
 10
9.0
 20
2.0
 30
0.0
  0
VERTEX
  5
7BA
  8
IV_OUTER_PROFILE
 10
29.450000000000021
 20
2.0
 30
0.0
  0
VERTEX
  5
7BB
  8
IV_OUTER_PROFILE
 10
29.450000000000021
 20
0.0
 30
0.0
  0
VERTEX
  5
7BC
  8
IV_OUTER_PROFILE
 10
38.450000000000017
 20
0.0
 30
0.0
  0
VERTEX
  5
7BD
  8
IV_OUTER_PROFILE
 10
38.450000000000017
 20
-16.449999999999928
 30
0.0
  0
VERTEX
  5
7BE
  8
IV_OUTER_PROFILE
 10
29.450000000000021
 20
-16.449999999999928
 30
0.0
  0
VERTEX
  5
7BF
  8
IV_OUTER_PROFILE
 10
29.450000000000021
 20
-18.449999999999921
 30
0.0
  0
SEQEND
  5
7C0
  8
IV_OUTER_PROFILE
  0
ENDBLK
  5
2DC
  8
0
  0
BLOCK
  8
0
  2
*D6
 70
     1
 10
0.0
 20
0.0
 30
0.0
  3
*D6
  1

  0
LINE
  5
809
  8
0
 62
     0
 10
66.462986864926265
 20
1106.9540040667689
 30
0.0
 11
66.462986864926265
 21
1131.445576241246
 31
0.0
  0
LINE
  5
80A
  8
0
 62
     0
 10
668.46298686492617
 20
1106.9540040667689
 30
0.0
 11
668.46298686492617
 21
1131.445576241246
 31
0.0
  0
LINE
  5
80B
  8
0
 62
     0
 10
91.462986864926265
 20
1130.195576241246
 30
0.0
 11
643.46298686492617
 21
1130.195576241246
 31
0.0
  0
SOLID
  5
80C
  8
0
 62
     0
 10
91.462986864926265
 20
1134.3622429079121
 30
0.0
 11
91.462986864926265
 21
1126.0289095745791
 31
0.0
 12
66.462986864926265
 22
1130.195576241246
 32
0.0
 13
66.462986864926265
 23
1130.195576241246
 33
0.0
  0
SOLID
  5
80D
  8
0
 62
     0
 10
643.46298686492617
 20
1134.3622429079121
 30
0.0
 11
643.46298686492617
 21
1126.0289095745791
 31
0.0
 12
668.46298686492617
 22
1130.195576241246
 32
0.0
 13
668.46298686492617
 23
1130.195576241246
 33
0.0
  0
TEXT
  8
0
  40
33
  5
84F
  62
0
  72
0
  71
0
 10
301.463
 20
1093.29
 30
0.000000
  1
602
  0
POINT
  5
80F
  8
DEFPOINTS
 62
     0
 10
66.462986864926265
 20
1091.9540040667689
 30
0.0
  0
POINT
  5
810
  8
DEFPOINTS
 62
     0
 10
668.46298686492617
 20
1091.9540040667689
 30
0.0
  0
POINT
  5
811
  8
DEFPOINTS
 62
     0
 10
668.46298686492617
 20
1130.195576241246
 30
0.0
  0
ENDBLK
  5
6AC
  8
0
  0
BLOCK
  8
0
  2
*D7
 70
     1
 10
0.0
 20
0.0
 30
0.0
  3
*D7
  1

  0
LINE
  5
812
  8
0
 62
     0
 10
668.46298686492617
 20
1106.9540040667689
 30
0.0
 11
668.46298686492617
 21
1131.445576241246
 31
0.0
  0
LINE
  5
813
  8
0
 62
     0
 10
1270.4629868649261
 20
1106.9540040667689
 30
0.0
 11
1270.4629868649261
 21
1131.445576241246
 31
0.0
  0
LINE
  5
814
  8
0
 62
     0
 10
693.46298686492617
 20
1130.195576241246
 30
0.0
 11
1245.4629868649261
 21
1130.195576241246
 31
0.0
  0
SOLID
  5
815
  8
0
 62
     0
 10
693.46298686492617
 20
1134.3622429079121
 30
0.0
 11
693.46298686492617
 21
1126.0289095745791
 31
0.0
 12
668.46298686492617
 22
1130.195576241246
 32
0.0
 13
668.46298686492617
 23
1130.195576241246
 33
0.0
  0
SOLID
  5
816
  8
0
 62
     0
 10
1245.4629868649261
 20
1134.3622429079121
 30
0.0
 11
1245.4629868649261
 21
1126.0289095745791
 31
0.0
 12
1270.4629868649261
 22
1130.195576241246
 32
0.0
 13
1270.4629868649261
 23
1130.195576241246
 33
0.0
  0
TEXT
  8
0
  40
33
  5
850
  62
0
  72
0
  71
0
 10
903.463
 20
1093.29
 30
0.000000
  1
602
  0
POINT
  5
818
  8
DEFPOINTS
 62
     0
 10
668.46298686492617
 20
1091.9540040667689
 30
0.0
  0
POINT
  5
819
  8
DEFPOINTS
 62
     0
 10
1270.4629868649261
 20
1091.9540040667689
 30
0.0
  0
POINT
  5
81A
  8
DEFPOINTS
 62
     0
 10
1270.4629868649261
 20
1130.195576241246
 30
0.0
  0
ENDBLK
  5
6B9
  8
0
  0
BLOCK
  8
0
  2
*D8
 70
     1
 10
0.0
 20
0.0
 30
0.0
  3
*D8
  1

  0
LINE
  5
81B
  8
0
 62
     0
 10
1270.4629868649261
 20
1106.9540040667689
 30
0.0
 11
1270.4629868649261
 21
1131.445576241246
 31
0.0
  0
LINE
  5
81C
  8
0
 62
     0
 10
1872.4629868649261
 20
1106.9540040667689
 30
0.0
 11
1872.4629868649261
 21
1131.445576241246
 31
0.0
  0
LINE
  5
81D
  8
0
 62
     0
 10
1295.4629868649261
 20
1130.195576241246
 30
0.0
 11
1847.4629868649261
 21
1130.195576241246
 31
0.0
  0
SOLID
  5
81E
  8
0
 62
     0
 10
1295.4629868649261
 20
1134.3622429079121
 30
0.0
 11
1295.4629868649261
 21
1126.0289095745791
 31
0.0
 12
1270.4629868649261
 22
1130.195576241246
 32
0.0
 13
1270.4629868649261
 23
1130.195576241246
 33
0.0
  0
SOLID
  5
81F
  8
0
 62
     0
 10
1847.4629868649261
 20
1134.3622429079121
 30
0.0
 11
1847.4629868649261
 21
1126.0289095745791
 31
0.0
 12
1872.4629868649261
 22
1130.195576241246
 32
0.0
 13
1872.4629868649261
 23
1130.195576241246
 33
0.0
  0
TEXT
  8
0
  40
33
  5
851
  62
0
  72
0
  71
0
 10
1505.46
 20
1093.29
 30
0.000000
  1
602
  0
POINT
  5
821
  8
DEFPOINTS
 62
     0
 10
1270.4629868649261
 20
1091.9540040667689
 30
0.0
  0
POINT
  5
822
  8
DEFPOINTS
 62
     0
 10
1872.4629868649261
 20
1091.9540040667689
 30
0.0
  0
POINT
  5
823
  8
DEFPOINTS
 62
     0
 10
1872.4629868649261
 20
1130.195576241246
 30
0.0
  0
ENDBLK
  5
6C6
  8
0
  0
BLOCK
  8
0
  2
*D9
 70
     1
 10
0.0
 20
0.0
 30
0.0
  3
*D9
  1

  0
LINE
  5
824
  8
0
 62
     0
 10
1872.4629868649261
 20
1106.9540040667689
 30
0.0
 11
1872.4629868649261
 21
1131.445576241246
 31
0.0
  0
LINE
  5
825
  8
0
 62
     0
 10
2096.4629868649258
 20
1106.9540040667689
 30
0.0
 11
2096.4629868649258
 21
1131.445576241246
 31
0.0
  0
LINE
  5
826
  8
0
 62
     0
 10
1897.4629868649261
 20
1130.195576241246
 30
0.0
 11
2071.4629868649272
 21
1130.195576241246
 31
0.0
  0
SOLID
  5
827
  8
0
 62
     0
 10
1897.4629868649261
 20
1134.3622429079121
 30
0.0
 11
1897.4629868649261
 21
1126.0289095745791
 31
0.0
 12
1872.4629868649261
 22
1130.195576241246
 32
0.0
 13
1872.4629868649261
 23
1130.195576241246
 33
0.0
  0
SOLID
  5
828
  8
0
 62
     0
 10
2071.4629868649272
 20
1134.3622429079121
 30
0.0
 11
2071.4629868649272
 21
1126.0289095745791
 31
0.0
 12
2096.4629868649258
 22
1130.195576241246
 32
0.0
 13
2096.4629868649258
 23
1130.195576241246
 33
0.0
  0
TEXT
  8
0
  40
33
  5
852
  62
0
  72
0
  71
0
 10
1918.46
 20
1093.29
 30
0.000000
  1
224
  0
POINT
  5
82A
  8
DEFPOINTS
 62
     0
 10
1872.4629868649261
 20
1091.9540040667689
 30
0.0
  0
POINT
  5
82B
  8
DEFPOINTS
 62
     0
 10
2096.4629868649258
 20
1091.9540040667689
 30
0.0
  0
POINT
  5
82C
  8
DEFPOINTS
 62
     0
 10
2096.4629868649258
 20
1130.195576241246
 30
0.0
  0
ENDBLK
  5
6D3
  8
0
  0
BLOCK
  8
0
  2
*D14
 70
     1
 10
0.0
 20
0.0
 30
0.0
  3
*D14
  1

  0
LINE
  5
83D
  8
0
 62
     0
 10
66.462986864926265
 20
1106.9540040667689
 30
0.0
 11
66.462986864926265
 21
1195.469992021377
 31
0.0
  0
LINE
  5
83E
  8
0
 62
     0
 10
2096.4629868649258
 20
1106.9540040667689
 30
0.0
 11
2096.4629868649258
 21
1195.469992021377
 31
0.0
  0
LINE
  5
83F
  8
0
 62
     0
 10
91.462986864926265
 20
1194.219992021377
 30
0.0
 11
2071.4629868649272
 21
1194.219992021377
 31
0.0
  0
SOLID
  5
840
  8
0
 62
     0
 10
91.462986864926265
 20
1198.386658688044
 30
0.0
 11
91.462986864926265
 21
1190.0533253547101
 31
0.0
 12
66.462986864926265
 22
1194.219992021377
 32
0.0
 13
66.462986864926265
 23
1194.219992021377
 33
0.0
  0
SOLID
  5
841
  8
0
 62
     0
 10
2071.4629868649272
 20
1198.386658688044
 30
0.0
 11
2071.4629868649272
 21
1190.0533253547101
 31
0.0
 12
2096.4629868649258
 22
1194.219992021377
 32
0.0
 13
2096.4629868649258
 23
1194.219992021377
 33
0.0
  0
TEXT
  8
0
  40
33
  5
853
  62
0
  72
0
  71
0
 10
1015.46
 20
1157.31
 30
0.000000
  1
2030
  0
POINT
  5
843
  8
DEFPOINTS
 62
     0
 10
66.462986864926265
 20
1091.9540040667689
 30
0.0
  0
POINT
  5
844
  8
DEFPOINTS
 62
     0
 10
2096.4629868649258
 20
1091.9540040667689
 30
0.0
  0
POINT
  5
845
  8
DEFPOINTS
 62
     0
 10
2096.4629868649258
 20
1194.219992021377
 30
0.0
  0
ENDBLK
  5
738
  8
0
  0
BLOCK
  8
0
  2
*D15
 70
     1
 10
0.0
 20
0.0
 30
0.0
  3
*D15
  1

  0
LINE
  5
846
  8
0
 62
     0
 10
2111.4629868649272
 20
1091.9540040667689
 30
0.0
 11
2173.1635530915992
 21
1091.9540040667689
 31
0.0
  0
LINE
  5
847
  8
0
 62
     0
 10
2111.4629868649272
 20
689.95400406676936
 30
0.0
 11
2173.1635530915992
 21
689.95400406676936
 31
0.0
  0
LINE
  5
848
  8
0
 62
     0
 10
2171.9135530915992
 20
1066.9540040667689
 30
0.0
 11
2171.9135530915992
 21
714.95400406676936
 31
0.0
  0
SOLID
  5
849
  8
0
 62
     0
 10
2167.7468864249331
 20
1066.9540040667689
 30
0.0
 11
2176.0802197582661
 21
1066.9540040667689
 31
0.0
 12
2171.9135530915992
 22
1091.9540040667689
 32
0.0
 13
2171.9135530915992
 23
1091.9540040667689
 33
0.0
  0
SOLID
  5
84A
  8
0
 62
     0
 10
2167.7468864249322
 20
714.95400406676936
 30
0.0
 11
2176.0802197582648
 21
714.95400406676936
 31
0.0
 12
2171.9135530915992
 22
689.95400406676936
 32
0.0
 13
2171.9135530915992
 23
689.95400406676936
 33
0.0
  0
TEXT
  8
0
  40
33
  5
854
  62
0
  72
0
  71
0
 10
2084.41
 20
832.544
 30
0.000000
  1
402
  0
POINT
  5
84C
  8
DEFPOINTS
 62
     0
 10
2096.4629868649258
 20
1091.9540040667689
 30
0.0
  0
POINT
  5
84D
  8
DEFPOINTS
 62
     0
 10
2096.4629868649258
 20
689.95400406676936
 30
0.0
  0
POINT
  5
84E
  8
DEFPOINTS
 62
     0
 10
2171.9135530915992
 20
689.95400406676936
 30
0.0
  0
ENDBLK
  5
74E
  8
0
  0
BLOCK
  8
0
  2
*U17
 70
     1
 10
0.0
 20
0.0
 30
0.0
  3
*U17
  1

  0
TEXT
  5
82E
  8
0
 62
     0
 10
1543.842742833421
 20
1893.3521082597199
 30
0.0
 40
33.0
  1
2030
  0
ENDBLK
  5
830
  8
0
  0
BLOCK
  8
0
  2
*U18
 70
     1
 10
0.0
 20
0.0
 30
0.0
  3
*U18
  1

  0
TEXT
  5
832
  8
0
 62
     0
 10
1543.842742833421
 20
1893.3521082597199
 30
0.0
 40
33.0
  1
2030
  0
ENDBLK
  5
834
  8
0
  0
BLOCK
  8
0
  2
*U19
 70
     1
 10
0.0
 20
0.0
 30
0.0
  3
*U19
  1

  0
TEXT
  5
836
  8
0
 62
     0
 10
1543.842742833421
 20
1893.3521082597199
 30
0.0
 40
33.0
  1
2030
  0
ENDBLK
  5
838
  8
0
  0
BLOCK
  8
0
  2
*U20
 70
     1
 10
0.0
 20
0.0
 30
0.0
  3
*U20
  1

  0
TEXT
  5
83A
  8
0
 62
     0
 10
1543.842742833421
 20
1893.3521082597199
 30
0.0
 40
33.0
  1
2030
  0
ENDBLK
  5
83C
  8
0
  0
ENDSEC
  0
SECTION
  2
ENTITIES
  0
POLYLINE
  5
2A5
  8
0
 62
   242
 66
     1
 10
0.0
 20
0.0
 30
0.0
 70
     1
  0
VERTEX
  5
78D
  8
0
 62
   242
 10
66.462986864926265
 20
76.908579386729798
 30
0.0
  0
VERTEX
  5
78E
  8
0
 62
   242
 10
666.46298686492639
 20
76.908579386729798
 30
0.0
  0
VERTEX
  5
78F
  8
0
 62
   242
 10
666.46298686492639
 20
476.90857938672963
 30
0.0
  0
VERTEX
  5
790
  8
0
 62
   242
 10
66.462986864926265
 20
476.90857938672963
 30
0.0
  0
SEQEND
  5
791
  8
0
 62
   242
  0
INSERT
  5
2D4
  8
0
  2
CHAIN-SIDE-PLATE
 10
113.7105574880657
 20
456.48995242013291
 30
0.0
  0
INSERT
  5
2D9
  8
0
  2
CHAIN-WIDE-PLATE
 10
76.73798686492637
 20
452.26495242013277
 30
0.0
  0
INSERT
  5
2DE
  8
0
  2
CHAIN-THIN-PLATE
 10
119.48555748806579
 20
450.26495242013272
 30
0.0
  0
INSERT
  5
2E0
  8
0
  2
CHAIN-SIDE-PLATE
 10
70.962986864926236
 20
472.6835793867296
 30
0.0
 41
-1.0
 50
180.0
  0
INSERT
  5
2E9
  8
0
  2
CHAIN-WIDE-PLATE
 10
200.68312811120541
 20
452.26495242013277
 30
0.0
 41
-1.0
  0
INSERT
  5
2EA
  8
0
  2
CHAIN-SIDE-PLATE
 10
206.45812811120561
 20
472.6835793867296
 30
0.0
 50
180.0
  0
INSERT
  5
2EB
  8
0
  2
CHAIN-SIDE-PLATE
 10
249.20569873434511
 20
456.48995242013291
 30
0.0
 41
-1.0
  0
INSERT
  5
2EC
  8
0
  2
CHAIN-THIN-PLATE
 10
243.43069873434499
 20
450.26495242013272
 30
0.0
 41
-1.0
  0
INSERT
  5
2ED
  8
0
  2
CHAIN-WIDE-PLATE
 10
286.17826935748462
 20
452.26495242013277
 30
0.0
 41
-1.0
  0
INSERT
  5
2EE
  8
0
  2
CHAIN-SIDE-PLATE
 10
291.95326935748471
 20
472.6835793867296
 30
0.0
 50
180.0
  0
INSERT
  5
2EF
  8
0
  2
CHAIN-SIDE-PLATE
 10
334.70083998062421
 20
456.48995242013291
 30
0.0
 41
-1.0
  0
INSERT
  5
2F0
  8
0
  2
CHAIN-THIN-PLATE
 10
328.92583998062429
 20
450.26495242013272
 30
0.0
 41
-1.0
  0
INSERT
  5
2F1
  8
0
  2
CHAIN-WIDE-PLATE
 10
371.67341060376373
 20
452.26495242013277
 30
0.0
 41
-1.0
  0
INSERT
  5
2F2
  8
0
  2
CHAIN-SIDE-PLATE
 10
377.4484106037641
 20
472.6835793867296
 30
0.0
 50
180.0
  0
INSERT
  5
2F3
  8
0
  2
CHAIN-SIDE-PLATE
 10
420.19598122690331
 20
456.48995242013291
 30
0.0
 41
-1.0
  0
INSERT
  5
2F4
  8
0
  2
CHAIN-THIN-PLATE
 10
414.42098122690339
 20
450.26495242013272
 30
0.0
 41
-1.0
  0
INSERT
  5
2F5
  8
0
  2
CHAIN-WIDE-PLATE
 10
457.16855185004289
 20
452.26495242013277
 30
0.0
 41
-1.0
  0
INSERT
  5
2F6
  8
0
  2
CHAIN-SIDE-PLATE
 10
462.94355185004309
 20
472.6835793867296
 30
0.0
 50
180.0
  0
INSERT
  5
2F7
  8
0
  2
CHAIN-SIDE-PLATE
 10
505.6911224731827
 20
456.48995242013291
 30
0.0
 41
-1.0
  0
INSERT
  5
2F8
  8
0
  2
CHAIN-THIN-PLATE
 10
499.9161224731825
 20
450.26495242013272
 30
0.0
 41
-1.0
  0
INSERT
  5
2F9
  8
0
  2
CHAIN-WIDE-PLATE
 10
542.66369309632228
 20
452.26495242013277
 30
0.0
 41
-1.0
  0
INSERT
  5
2FA
  8
0
  2
CHAIN-SIDE-PLATE
 10
548.43869309632225
 20
472.6835793867296
 30
0.0
 50
180.0
  0
INSERT
  5
2FB
  8
0
  2
CHAIN-SIDE-PLATE
 10
591.18626371946186
 20
456.48995242013291
 30
0.0
 41
-1.0
  0
INSERT
  5
2FC
  8
0
  2
CHAIN-THIN-PLATE
 10
585.41126371946166
 20
450.26495242013272
 30
0.0
 41
-1.0
  0
INSERT
  5
2FD
  8
0
  2
CHAIN-WIDE-PLATE
 10
628.15883434260138
 20
452.26495242013277
 30
0.0
 41
-1.0
  0
INSERT
  5
2FE
  8
0
  2
CHAIN-SIDE-PLATE
 10
633.9338343426017
 20
472.6835793867296
 30
0.0
 50
180.0
  0
INSERT
  5
301
  8
0
  2
CHAIN-SIDE-PLATE
 10
113.7105574880657
 20
427.58995242013259
 30
0.0
 41
-1.0
 50
180.0
  0
INSERT
  5
302
  8
0
  2
CHAIN-SIDE-PLATE
 10
70.962986864926236
 20
411.39632545353578
 30
0.0
  0
INSERT
  5
303
  8
0
  2
CHAIN-SIDE-PLATE
 10
206.45812811120561
 20
411.39632545353578
 30
0.0
 41
-1.0
  0
INSERT
  5
304
  8
0
  2
CHAIN-SIDE-PLATE
 10
249.20569873434511
 20
427.58995242013259
 30
0.0
 50
180.0
  0
INSERT
  5
305
  8
0
  2
CHAIN-SIDE-PLATE
 10
291.95326935748471
 20
411.39632545353578
 30
0.0
 41
-1.0
  0
INSERT
  5
306
  8
0
  2
CHAIN-SIDE-PLATE
 10
334.70083998062421
 20
427.58995242013259
 30
0.0
 50
180.0
  0
INSERT
  5
307
  8
0
  2
CHAIN-SIDE-PLATE
 10
377.4484106037641
 20
411.39632545353578
 30
0.0
 41
-1.0
  0
INSERT
  5
308
  8
0
  2
CHAIN-SIDE-PLATE
 10
420.19598122690331
 20
427.58995242013259
 30
0.0
 50
180.0
  0
INSERT
  5
309
  8
0
  2
CHAIN-SIDE-PLATE
 10
462.94355185004309
 20
411.39632545353578
 30
0.0
 41
-1.0
  0
INSERT
  5
30A
  8
0
  2
CHAIN-SIDE-PLATE
 10
505.6911224731827
 20
427.58995242013259
 30
0.0
 50
180.0
  0
INSERT
  5
30B
  8
0
  2
CHAIN-SIDE-PLATE
 10
548.43869309632225
 20
411.39632545353578
 30
0.0
 41
-1.0
  0
INSERT
  5
30C
  8
0
  2
CHAIN-SIDE-PLATE
 10
591.18626371946186
 20
427.58995242013259
 30
0.0
 50
180.0
  0
INSERT
  5
30D
  8
0
  2
CHAIN-SIDE-PLATE
 10
633.9338343426017
 20
411.39632545353578
 30
0.0
 41
-1.0
  0
INSERT
  5
30E
  8
0
  2
CHAIN-THIN-PLATE
 10
76.737986864926256
 20
405.17132545353559
 30
0.0
  0
INSERT
  5
30F
  8
0
  2
CHAIN-WIDE-PLATE
 10
157.93555748806591
 20
407.17132545353581
 30
0.0
 41
-1.0
  0
INSERT
  5
310
  8
0
  2
CHAIN-THIN-PLATE
 10
200.68312811120541
 20
405.17132545353559
 30
0.0
 41
-1.0
  0
INSERT
  5
311
  8
0
  2
CHAIN-WIDE-PLATE
 10
243.4306987343451
 20
407.17132545353581
 30
0.0
 41
-1.0
  0
INSERT
  5
312
  8
0
  2
CHAIN-THIN-PLATE
 10
286.17826935748468
 20
405.17132545353559
 30
0.0
 41
-1.0
  0
INSERT
  5
313
  8
0
  2
CHAIN-WIDE-PLATE
 10
328.92583998062429
 20
407.17132545353581
 30
0.0
 41
-1.0
  0
INSERT
  5
314
  8
0
  2
CHAIN-THIN-PLATE
 10
371.6734106037639
 20
405.17132545353559
 30
0.0
 41
-1.0
  0
INSERT
  5
315
  8
0
  2
CHAIN-WIDE-PLATE
 10
414.42098122690351
 20
407.17132545353581
 30
0.0
 41
-1.0
  0
INSERT
  5
316
  8
0
  2
CHAIN-THIN-PLATE
 10
457.16855185004312
 20
405.17132545353559
 30
0.0
 41
-1.0
  0
INSERT
  5
317
  8
0
  2
CHAIN-WIDE-PLATE
 10
499.91612247318272
 20
407.17132545353581
 30
0.0
 41
-1.0
  0
INSERT
  5
318
  8
0
  2
CHAIN-THIN-PLATE
 10
542.66369309632228
 20
405.17132545353559
 30
0.0
 41
-1.0
  0
INSERT
  5
319
  8
0
  2
CHAIN-WIDE-PLATE
 10
585.41126371946166
 20
407.17132545353581
 30
0.0
 41
-1.0
  0
INSERT
  5
31A
  8
0
  2
CHAIN-THIN-PLATE
 10
589.70883434260145
 20
405.17132545353559
 30
0.0
  0
INSERT
  5
322
  8
0
  2
CHAIN-SIDE-PLATE
 10
113.7105574880657
 20
366.30269848693882
 30
0.0
  0
INSERT
  5
323
  8
0
  2
CHAIN-SIDE-PLATE
 10
70.962986864926236
 20
382.4963254535358
 30
0.0
 41
-1.0
 50
180.0
  0
INSERT
  5
324
  8
0
  2
CHAIN-SIDE-PLATE
 10
206.45812811120561
 20
382.4963254535358
 30
0.0
 50
180.0
  0
INSERT
  5
325
  8
0
  2
CHAIN-SIDE-PLATE
 10
249.20569873434511
 20
366.30269848693882
 30
0.0
 41
-1.0
  0
INSERT
  5
326
  8
0
  2
CHAIN-SIDE-PLATE
 10
291.95326935748471
 20
382.4963254535358
 30
0.0
 50
180.0
  0
INSERT
  5
327
  8
0
  2
CHAIN-SIDE-PLATE
 10
334.70083998062421
 20
366.30269848693882
 30
0.0
 41
-1.0
  0
INSERT
  5
328
  8
0
  2
CHAIN-SIDE-PLATE
 10
377.4484106037641
 20
382.4963254535358
 30
0.0
 50
180.0
  0
INSERT
  5
329
  8
0
  2
CHAIN-SIDE-PLATE
 10
420.19598122690331
 20
366.30269848693882
 30
0.0
 41
-1.0
  0
INSERT
  5
32A
  8
0
  2
CHAIN-SIDE-PLATE
 10
462.94355185004309
 20
382.4963254535358
 30
0.0
 50
180.0
  0
INSERT
  5
32B
  8
0
  2
CHAIN-SIDE-PLATE
 10
505.6911224731827
 20
366.30269848693882
 30
0.0
 41
-1.0
  0
INSERT
  5
32C
  8
0
  2
CHAIN-SIDE-PLATE
 10
548.43869309632225
 20
382.4963254535358
 30
0.0
 50
180.0
  0
INSERT
  5
32D
  8
0
  2
CHAIN-SIDE-PLATE
 10
591.18626371946186
 20
366.30269848693882
 30
0.0
 41
-1.0
  0
INSERT
  5
32E
  8
0
  2
CHAIN-SIDE-PLATE
 10
633.9338343426017
 20
382.4963254535358
 30
0.0
 50
180.0
  0
INSERT
  5
32F
  8
0
  2
CHAIN-WIDE-PLATE
 10
76.73798686492637
 20
362.0776984869388
 30
0.0
  0
INSERT
  5
330
  8
0
  2
CHAIN-THIN-PLATE
 10
119.48555748806579
 20
360.0776984869388
 30
0.0
  0
INSERT
  5
331
  8
0
  2
CHAIN-WIDE-PLATE
 10
200.68312811120541
 20
362.0776984869388
 30
0.0
 41
-1.0
  0
INSERT
  5
332
  8
0
  2
CHAIN-THIN-PLATE
 10
243.43069873434499
 20
360.0776984869388
 30
0.0
 41
-1.0
  0
INSERT
  5
333
  8
0
  2
CHAIN-WIDE-PLATE
 10
286.17826935748462
 20
362.0776984869388
 30
0.0
 41
-1.0
  0
INSERT
  5
334
  8
0
  2
CHAIN-THIN-PLATE
 10
328.92583998062429
 20
360.0776984869388
 30
0.0
 41
-1.0
  0
INSERT
  5
335
  8
0
  2
CHAIN-WIDE-PLATE
 10
371.67341060376373
 20
362.0776984869388
 30
0.0
 41
-1.0
  0
INSERT
  5
336
  8
0
  2
CHAIN-THIN-PLATE
 10
414.42098122690339
 20
360.0776984869388
 30
0.0
 41
-1.0
  0
INSERT
  5
337
  8
0
  2
CHAIN-WIDE-PLATE
 10
457.16855185004289
 20
362.0776984869388
 30
0.0
 41
-1.0
  0
INSERT
  5
338
  8
0
  2
CHAIN-THIN-PLATE
 10
499.9161224731825
 20
360.0776984869388
 30
0.0
 41
-1.0
  0
INSERT
  5
339
  8
0
  2
CHAIN-WIDE-PLATE
 10
542.66369309632228
 20
362.0776984869388
 30
0.0
 41
-1.0
  0
INSERT
  5
33A
  8
0
  2
CHAIN-THIN-PLATE
 10
585.41126371946166
 20
360.0776984869388
 30
0.0
 41
-1.0
  0
INSERT
  5
33B
  8
0
  2
CHAIN-WIDE-PLATE
 10
628.15883434260138
 20
362.0776984869388
 30
0.0
 41
-1.0
  0
INSERT
  5
33C
  8
0
  2
CHAIN-SIDE-PLATE
 10
113.7105574880657
 20
337.40269848693879
 30
0.0
 41
-1.0
 50
180.0
  0
INSERT
  5
33D
  8
0
  2
CHAIN-SIDE-PLATE
 10
70.962986864926194
 20
321.20907152034181
 30
0.0
  0
INSERT
  5
33E
  8
0
  2
CHAIN-SIDE-PLATE
 10
206.4581281112055
 20
321.20907152034181
 30
0.0
 41
-1.0
  0
INSERT
  5
33F
  8
0
  2
CHAIN-SIDE-PLATE
 10
249.20569873434499
 20
337.40269848693879
 30
0.0
 50
180.0
  0
INSERT
  5
340
  8
0
  2
CHAIN-SIDE-PLATE
 10
291.95326935748471
 20
321.20907152034181
 30
0.0
 41
-1.0
  0
INSERT
  5
341
  8
0
  2
CHAIN-SIDE-PLATE
 10
334.70083998062421
 20
337.40269848693879
 30
0.0
 50
180.0
  0
INSERT
  5
342
  8
0
  2
CHAIN-SIDE-PLATE
 10
377.4484106037641
 20
321.20907152034181
 30
0.0
 41
-1.0
  0
INSERT
  5
343
  8
0
  2
CHAIN-SIDE-PLATE
 10
420.19598122690331
 20
337.40269848693879
 30
0.0
 50
180.0
  0
INSERT
  5
344
  8
0
  2
CHAIN-SIDE-PLATE
 10
462.94355185004309
 20
321.20907152034181
 30
0.0
 41
-1.0
  0
INSERT
  5
345
  8
0
  2
CHAIN-SIDE-PLATE
 10
505.6911224731827
 20
337.40269848693879
 30
0.0
 50
180.0
  0
INSERT
  5
346
  8
0
  2
CHAIN-SIDE-PLATE
 10
548.43869309632225
 20
321.20907152034181
 30
0.0
 41
-1.0
  0
INSERT
  5
347
  8
0
  2
CHAIN-SIDE-PLATE
 10
591.18626371946186
 20
337.40269848693879
 30
0.0
 50
180.0
  0
INSERT
  5
348
  8
0
  2
CHAIN-SIDE-PLATE
 10
633.9338343426017
 20
321.20907152034181
 30
0.0
 41
-1.0
  0
INSERT
  5
349
  8
0
  2
CHAIN-THIN-PLATE
 10
76.737986864926228
 20
314.98407152034179
 30
0.0
  0
INSERT
  5
34A
  8
0
  2
CHAIN-WIDE-PLATE
 10
157.9355574880658
 20
316.98407152034179
 30
0.0
 41
-1.0
  0
INSERT
  5
34B
  8
0
  2
CHAIN-THIN-PLATE
 10
200.68312811120541
 20
314.98407152034179
 30
0.0
 41
-1.0
  0
INSERT
  5
34C
  8
0
  2
CHAIN-WIDE-PLATE
 10
243.4306987343451
 20
316.98407152034179
 30
0.0
 41
-1.0
  0
INSERT
  5
34D
  8
0
  2
CHAIN-THIN-PLATE
 10
286.17826935748468
 20
314.98407152034179
 30
0.0
 41
-1.0
  0
INSERT
  5
34E
  8
0
  2
CHAIN-WIDE-PLATE
 10
328.92583998062429
 20
316.98407152034179
 30
0.0
 41
-1.0
  0
INSERT
  5
34F
  8
0
  2
CHAIN-THIN-PLATE
 10
371.6734106037639
 20
314.98407152034179
 30
0.0
 41
-1.0
  0
INSERT
  5
350
  8
0
  2
CHAIN-WIDE-PLATE
 10
414.42098122690351
 20
316.98407152034179
 30
0.0
 41
-1.0
  0
INSERT
  5
351
  8
0
  2
CHAIN-THIN-PLATE
 10
457.16855185004312
 20
314.98407152034179
 30
0.0
 41
-1.0
  0
INSERT
  5
352
  8
0
  2
CHAIN-WIDE-PLATE
 10
499.91612247318272
 20
316.98407152034179
 30
0.0
 41
-1.0
  0
INSERT
  5
353
  8
0
  2
CHAIN-THIN-PLATE
 10
542.66369309632228
 20
314.98407152034179
 30
0.0
 41
-1.0
  0
INSERT
  5
354
  8
0
  2
CHAIN-WIDE-PLATE
 10
585.41126371946166
 20
316.98407152034179
 30
0.0
 41
-1.0
  0
INSERT
  5
355
  8
0
  2
CHAIN-THIN-PLATE
 10
589.70883434260145
 20
314.98407152034179
 30
0.0
  0
POLYLINE
  5
69E
  8
0
 66
     1
 10
0.0
 20
0.0
 30
0.0
 39
1.0
 70
     1
  0
VERTEX
  5
801
  8
0
 10
66.462986864926265
 20
689.95400406676936
 30
0.0
  0
VERTEX
  5
802
  8
0
 10
2096.4629868649258
 20
689.95400406676936
 30
0.0
  0
VERTEX
  5
803
  8
0
 10
2096.4629868649258
 20
1091.9540040667689
 30
0.0
  0
VERTEX
  5
804
  8
0
 10
66.462986864926265
 20
1091.9540040667689
 30
0.0
  0
SEQEND
  5
805
  8
0
  0
LINE
  5
6A5
  8
0
 39
1.0
 10
668.46298686492617
 20
1091.9540040667689
 30
0.0
 11
668.46298686492617
 21
689.95400406676936
 31
0.0
  0
LINE
  5
6A6
  8
0
 39
1.0
 10
1270.4629868649261
 20
1091.9540040667689
 30
0.0
 11
1270.4629868649261
 21
689.95400406676936
 31
0.0
  0
LINE
  5
6A7
  8
0
 39
1.0
 10
1872.4629868649261
 20
1091.9540040667689
 30
0.0
 11
1872.4629868649261
 21
689.95400406676936
 31
0.0
  0
DIMENSION
  5
6A8
  8
0
  2
*D6
 10
668.46298686492617
 20
1130.195576241246
 30
0.0
 11
367.46298686492628
 21
1151.6955762412449
 31
0.0
 70
     0
 13
66.462986864926265
 23
1091.9540040667689
 33
0.0
 14
668.46298686492617
 24
1091.9540040667689
 34
0.0
1001
ACAD
1000
DSTYLE
1002
{
1070
   287
1070
     3
1070
    41
1040
25.0
1070
    42
1040
15.0
1070
   140
1040
33.0
1070
   147
1040
5.0
1070
   274
1070
     2
1070
   279
1070
     0
1070
   284
1070
     0
1070
   285
1070
     0
1070
   286
1070
     0
1002
}
  0
DIMENSION
  5
6B6
  8
0
  2
*D7
 10
1270.4629868649261
 20
1130.195576241246
 30
0.0
 11
969.46298686492628
 21
1151.6955762412449
 31
0.0
 70
     0
 13
668.46298686492617
 23
1091.9540040667689
 33
0.0
 14
1270.4629868649261
 24
1091.9540040667689
 34
0.0
1001
ACAD
1000
DSTYLE
1002
{
1070
   287
1070
     4
1070
    41
1040
25.0
1070
    42
1040
15.0
1070
   140
1040
33.0
1070
   147
1040
5.0
1070
   274
1070
     2
1070
   279
1070
     0
1070
   284
1070
     0
1070
   285
1070
     0
1070
   286
1070
     0
1002
}
  0
DIMENSION
  5
6C3
  8
0
  2
*D8
 10
1872.4629868649261
 20
1130.195576241246
 30
0.0
 11
1571.4629868649261
 21
1151.6955762412449
 31
0.0
 70
     0
 13
1270.4629868649261
 23
1091.9540040667689
 33
0.0
 14
1872.4629868649261
 24
1091.9540040667689
 34
0.0
1001
ACAD
1000
DSTYLE
1002
{
1070
   287
1070
     3
1070
    41
1040
25.0
1070
    42
1040
15.0
1070
   140
1040
33.0
1070
   147
1040
5.0
1070
   274
1070
     2
1070
   279
1070
     0
1070
   284
1070
     0
1070
   285
1070
     0
1070
   286
1070
     0
1002
}
  0
DIMENSION
  5
6D0
  8
0
  2
*D9
 10
2096.4629868649258
 20
1130.195576241246
 30
0.0
 11
1984.4629868649261
 21
1151.6955762412449
 31
0.0
 70
     0
 13
1872.4629868649261
 23
1091.9540040667689
 33
0.0
 14
2096.4629868649258
 24
1091.9540040667689
 34
0.0
1001
ACAD
1000
DSTYLE
1002
{
1070
   287
1070
     3
1070
    41
1040
25.0
1070
    42
1040
15.0
1070
   140
1040
33.0
1070
   147
1040
5.0
1070
   274
1070
     2
1070
   279
1070
     0
1070
   284
1070
     0
1070
   285
1070
     0
1070
   286
1070
     0
1002
}
  0
DIMENSION
  5
735
  8
0
  2
*D14
 10
2096.4629868649258
 20
1194.219992021377
 30
0.0
 11
1081.4629868649261
 21
1215.719992021377
 31
0.0
 70
     0
 13
66.462986864926265
 23
1091.9540040667689
 33
0.0
 14
2096.4629868649258
 24
1091.9540040667689
 34
0.0
1001
ACAD
1000
DSTYLE
1002
{
1070
   287
1070
     3
1070
    41
1040
25.0
1070
    42
1040
15.0
1070
   140
1040
33.0
1070
   147
1040
5.0
1070
   274
1070
     2
1070
   279
1070
     0
1070
   284
1070
     0
1070
   285
1070
     0
1070
   286
1070
     0
1002
}
  0
DIMENSION
  5
74B
  8
0
  2
*D15
 10
2171.9135530915992
 20
689.95400406676936
 30
0.0
 11
2150.4135530915992
 21
890.95400406676958
 31
0.0
 70
     0
 13
2096.4629868649258
 23
1091.9540040667689
 33
0.0
 14
2096.4629868649258
 24
689.95400406676936
 34
0.0
 50
90.0
1001
ACAD
1000
DSTYLE
1002
{
1070
   287
1070
     3
1070
    41
1040
25.0
1070
    42
1040
15.0
1070
   140
1040
33.0
1070
   147
1040
5.0
1070
   274
1070
     2
1070
   279
1070
     0
1070
   284
1070
     0
1070
   285
1070
     0
1070
   286
1070
     0
1002
}
  0
ENDSEC
  0
EOF
