  0
SECTION
  2
HEADER
  9
$ACADVER
  1
AC1009
  9
$INSBASE
 10
0.0
 20
0.0
 30
0.0
  9
$EXTMIN
 10
375.71800000000002
 20
54.840554807856499
 30
0.0
  9
$EXTMAX
 10
3608.2822556390929
 20
1892.518774926386
 30
0.75
  9
$LIMMIN
 10
0.0
 20
0.0
  9
$LIMMAX
 10
420.0
 20
297.0
  9
$ORTHOMODE
 70
     0
  9
$REGENMODE
 70
     1
  9
$FILLMODE
 70
     1
  9
$QTEXTMODE
 70
     0
  9
$MIRRTEXT
 70
     0
  9
$DRAGMODE
 70
     2
  9
$LTSCALE
 40
1.0
  9
$OSMODE
 70
   295
  9
$ATTMODE
 70
     1
  9
$TEXTSIZE
 40
2.5
  9
$TRACEWID
 40
1.0
  9
$TEXTSTYLE
  7
STANDARD
  9
$CLAYER
  8
0
  9
$CELTYPE
  6
BYLAYER
  9
$CECOLOR
 62
   256
  9
$DIMSCALE
 40
1.0
  9
$DIMASZ
 40
2.5
  9
$DIMEXO
 40
0.625
  9
$DIMDLI
 40
3.75
  9
$DIMRND
 40
0.0
  9
$DIMDLE
 40
0.0
  9
$DIMEXE
 40
1.25
  9
$DIMTP
 40
0.0
  9
$DIMTM
 40
0.0
  9
$DIMTXT
 40
2.5
  9
$DIMCEN
 40
2.5
  9
$DIMTSZ
 40
0.0
  9
$DIMTOL
 70
     0
  9
$DIMLIM
 70
     0
  9
$DIMTIH
 70
     0
  9
$DIMTOH
 70
     0
  9
$DIMSE1
 70
     0
  9
$DIMSE2
 70
     0
  9
$DIMTAD
 70
     1
  9
$DIMZIN
 70
     8
  9
$DIMBLK
  1

  9
$DIMASO
 70
     1
  9
$DIMSHO
 70
     1
  9
$DIMPOST
  1

  9
$DIMAPOST
  1

  9
$DIMALT
 70
     0
  9
$DIMALTD
 70
     3
  9
$DIMALTF
 40
0.03937007874016
  9
$DIMLFAC
 40
1.0
  9
$DIMTOFL
 70
     1
  9
$DIMTVP
 40
0.0
  9
$DIMTIX
 70
     0
  9
$DIMSOXD
 70
     0
  9
$DIMSAH
 70
     0
  9
$DIMBLK1
  1

  9
$DIMBLK2
  1

  9
$DIMSTYLE
  2
ISO-25
  9
$DIMCLRD
 70
     0
  9
$DIMCLRE
 70
     0
  9
$DIMCLRT
 70
     0
  9
$DIMTFAC
 40
1.0
  9
$DIMGAP
 40
0.625
  9
$LUNITS
 70
     2
  9
$LUPREC
 70
     4
  9
$SKETCHINC
 40
1.0
  9
$FILLETRAD
 40
0.0
  9
$AUNITS
 70
     0
  9
$AUPREC
 70
     0
  9
$MENU
  1
.
  9
$ELEVATION
 40
0.0
  9
$PELEVATION
 40
0.0
  9
$THICKNESS
 40
0.0
  9
$LIMCHECK
 70
     0
  9
$BLIPMODE
 70
     0
  9
$CHAMFERA
 40
0.0
  9
$CHAMFERB
 40
0.0
  9
$SKPOLY
 70
     0
  9
$TDCREATE
 40
2457075.8072420261
  9
$TDUPDATE
 40
2457416.5254217479
  9
$TDINDWG
 40
0.1321759838
  9
$TDUSRTIMER
 40
0.1321757755
  9
$USRTIMER
 70
     1
  9
$ANGBASE
 50
0.0
  9
$ANGDIR
 70
     0
  9
$PDMODE
 70
     0
  9
$PDSIZE
 40
0.0
  9
$PLINEWID
 40
0.0
  9
$COORDS
 70
     1
  9
$SPLFRAME
 70
     0
  9
$SPLINETYPE
 70
     6
  9
$SPLINESEGS
 70
     8
  9
$ATTDIA
 70
     1
  9
$ATTREQ
 70
     1
  9
$HANDLING
 70
     1
  9
$HANDSEED
  5
7E37
  9
$SURFTAB1
 70
     6
  9
$SURFTAB2
 70
     6
  9
$SURFTYPE
 70
     6
  9
$SURFU
 70
     6
  9
$SURFV
 70
     6
  9
$UCSNAME
  2

  9
$UCSORG
 10
568.28225563909291
 20
297.84889229545212
 30
0.0
  9
$UCSXDIR
 10
1.0
 20
0.0
 30
0.0
  9
$UCSYDIR
 10
0.0
 20
1.0
 30
0.0
  9
$PUCSNAME
  2

  9
$PUCSORG
 10
0.0
 20
0.0
 30
0.0
  9
$PUCSXDIR
 10
1.0
 20
0.0
 30
0.0
  9
$PUCSYDIR
 10
0.0
 20
1.0
 30
0.0
  9
$USERI1
 70
     0
  9
$USERI2
 70
     0
  9
$USERI3
 70
     0
  9
$USERI4
 70
     0
  9
$USERI5
 70
     0
  9
$USERR1
 40
0.0
  9
$USERR2
 40
0.0
  9
$USERR3
 40
0.0
  9
$USERR4
 40
0.0
  9
$USERR5
 40
0.0
  9
$WORLDVIEW
 70
     1
  9
$SHADEDGE
 70
     3
  9
$SHADEDIF
 70
    70
  9
$TILEMODE
 70
     1
  9
$MAXACTVP
 70
    64
  9
$PLIMCHECK
 70
     0
  9
$PEXTMIN
 10
0.0
 20
0.0
 30
0.0
  9
$PEXTMAX
 10
0.0
 20
0.0
 30
0.0
  9
$PLIMMIN
 10
0.0
 20
0.0
  9
$PLIMMAX
 10
12.0
 20
9.0
  9
$UNITMODE
 70
     0
  9
$VISRETAIN
 70
     1
  9
$PLINEGEN
 70
     0
  9
$PSLTSCALE
 70
     1
  0
ENDSEC
  0
SECTION
  2
TABLES
  0
TABLE
  2
VPORT
 70
     1
  0
VPORT
  2
*ACTIVE
 70
     0
 10
0.0
 20
0.0
 11
1.0
 21
1.0
 12
203.28020724325191
 22
-408.15533550620142
 13
0.0
 23
0.0
 14
10.0
 24
10.0
 15
10.0
 25
10.0
 16
0.0
 26
0.0
 36
6281.0957340880723
 17
1826.8002385734569
 27
1270.8458467097171
 37
0.0
 40
2331.7715860697631
 41
1.824984147114775
 42
50.0
 43
0.0
 44
0.0
 50
0.0
 51
0.0
 71
     0
 72
  1000
 73
     1
 74
     3
 75
     0
 76
     1
 77
     0
 78
     0
  0
ENDTAB
  0
TABLE
  2
LTYPE
 70
     2
  0
LTYPE
  2
CONTINUOUS
 70
     0
  3
Solid line
 72
    65
 73
     0
 40
0.0
  0
ENDTAB
  0
TABLE
  2
LAYER
 70
     4
  0
LAYER
  2
0
 70
     0
 62
     7
  6
CONTINUOUS
  0
LAYER
  2
IV_INTERIOR_PROFILES
 70
     0
 62
     7
  6
CONTINUOUS
  0
LAYER
  2
IV_OUTER_PROFILE
 70
     0
 62
     7
  6
CONTINUOUS
  0
LAYER
  2
DEFPOINTS
 70
     0
 62
     7
  6
CONTINUOUS
  0
ENDTAB
  0
TABLE
  2
STYLE
 70
     2
  0
STYLE
  2
STANDARD
 70
     0
 40
0.0
 41
1.0
 50
0.0
 71
     0
 42
2.5
  3
txt
  4

  0
STYLE
  2
ANNOTATIVE
 70
     0
 40
0.0
 41
1.0
 50
0.0
 71
     0
 42
2.5
  3
txt
  4

  0
ENDTAB
  0
TABLE
  2
VIEW
 70
     0
  0
ENDTAB
  0
TABLE
  2
UCS
 70
     0
  0
ENDTAB
  0
TABLE
  2
APPID
 70
    11
  0
APPID
  2
ACAD
 70
     0
  0
APPID
  2
ACADANNOTATIVE
 70
     0
  0
APPID
  2
ACAD_PSEXT
 70
     0
  0
APPID
  2
ACADANNOPO
 70
     0
  0
APPID
  2
ACAD_DSTYLE_DIMJAG
 70
     0
  0
APPID
  2
ACAD_DSTYLE_DIMTALN
 70
     0
  0
APPID
  2
ACAD_MLEADERVER
 70
     0
  0
APPID
  2
ACAD_NAV_VCDISPLAY
 70
     0
  0
APPID
  2
ACAD_EXEMPT_FROM_CAD_STANDARDS
 70
     0
  0
APPID
  2
CONTENTBLOCKICON
 70
     0
  0
APPID
  2
ACAD_DSTYLE_DIMRADIAL_EXTENSION
 70
     0
  0
ENDTAB
  0
TABLE
  2
DIMSTYLE
 70
     4
  0
DIMSTYLE
  2
STANDARD
 70
     0
  3

  4

  5

  6

  7

 40
1.0
 41
0.18
 42
0.0625
 43
0.38
 44
0.18
 45
0.0
 46
0.0
 47
0.0
 48
0.0
140
0.18
141
0.09
142
0.0
143
25.399999999999999
144
1.0
145
0.0
146
1.0
147
0.09
 71
     0
 72
     0
 73
     1
 74
     1
 75
     0
 76
     0
 77
     0
 78
     0
170
     0
171
     2
172
     0
173
     0
174
     0
175
     0
176
     0
177
     0
178
     0
  0
DIMSTYLE
  2
ANNOTATIVE
 70
     0
  3

  4

  5

  6

  7

 40
0.0
 41
2.5
 42
0.625
 43
3.75
 44
1.25
 45
0.0
 46
0.0
 47
0.0
 48
0.0
140
2.5
141
2.5
142
0.0
143
0.03937007874016
144
1.0
145
0.0
146
1.0
147
0.625
 71
     0
 72
     0
 73
     0
 74
     0
 75
     0
 76
     0
 77
     1
 78
     8
170
     0
171
     3
172
     1
173
     0
174
     0
175
     0
176
     0
177
     0
178
     0
  0
DIMSTYLE
  2
ISO-25
 70
     0
  3

  4

  5

  6

  7

 40
1.0
 41
2.5
 42
0.625
 43
3.75
 44
1.25
 45
0.0
 46
0.0
 47
0.0
 48
0.0
140
2.5
141
2.5
142
0.0
143
0.03937007874016
144
1.0
145
0.0
146
1.0
147
0.625
 71
     0
 72
     0
 73
     0
 74
     0
 75
     0
 76
     0
 77
     1
 78
     8
170
     0
171
     3
172
     1
173
     0
174
     0
175
     0
176
     0
177
     0
178
     0
  0
ENDTAB
  0
ENDSEC
  0
SECTION
  2
BLOCKS
  0
BLOCK
  8
0
  2
$MODEL_SPACE
 70
     0
 10
0.0
 20
0.0
 30
0.0
  3
$MODEL_SPACE
  1

  0
ENDBLK
  5
7614
  8
0
  0
BLOCK
 67
     1
  8
0
  2
$PAPER_SPACE
 70
     0
 10
0.0
 20
0.0
 30
0.0
  3
$PAPER_SPACE
  1

  0
ENDBLK
  5
7610
 67
     1
  8
0
  0
BLOCK
  8
0
  2
Z-PLATE
 70
     0
 10
0.0
 20
0.0
 30
0.0
  3
Z-PLATE
  1

  0
POLYLINE
  5
30D
  8
IV_OUTER_PROFILE
 66
     1
 10
0.0
 20
0.0
 30
0.0
 70
   129
  0
VERTEX
  5
7811
  8
IV_OUTER_PROFILE
 10
-6.725000000000021
 20
90.5
 30
0.0
 42
-0.414213562373095
  0
VERTEX
  5
7812
  8
IV_OUTER_PROFILE
 10
-4.5
 20
92.724999999999994
 30
0.0
  0
VERTEX
  5
7813
  8
IV_OUTER_PROFILE
 10
121.4999999999999
 20
92.725000000000065
 30
0.0
 42
-0.4142135623730919
  0
VERTEX
  5
7814
  8
IV_OUTER_PROFILE
 10
123.7249999999998
 20
90.5
 30
0.0
  0
VERTEX
  5
7815
  8
IV_OUTER_PROFILE
 10
123.72499999999999
 20
-5.4999999999999689
 30
0.0
 42
-0.4142135623730919
  0
VERTEX
  5
7816
  8
IV_OUTER_PROFILE
 10
121.4999999999999
 20
-7.724999999999965
 30
0.0
  0
VERTEX
  5
7817
  8
IV_OUTER_PROFILE
 10
-4.5
 20
-7.7249999999999348
 30
0.0
 42
-0.4142135623730951
  0
VERTEX
  5
7818
  8
IV_OUTER_PROFILE
 10
-6.725000000000021
 20
-5.4999999999999432
 30
0.0
  0
SEQEND
  5
7819
  8
IV_OUTER_PROFILE
  0
POLYLINE
  5
30E
  8
IV_INTERIOR_PROFILES
 66
     1
 10
0.0
 20
0.0
 30
0.0
 70
   129
  0
VERTEX
  5
781A
  8
IV_INTERIOR_PROFILES
 10
-2.524999999999975
 20
85.000000000000028
 30
0.0
 42
1.0
  0
VERTEX
  5
781B
  8
IV_INTERIOR_PROFILES
 10
2.524999999999975
 20
85.000000000000028
 30
0.0
 42
1.0
  0
SEQEND
  5
781C
  8
IV_INTERIOR_PROFILES
  0
POLYLINE
  5
30F
  8
IV_INTERIOR_PROFILES
 66
     1
 10
0.0
 20
0.0
 30
0.0
 70
   129
  0
VERTEX
  5
781D
  8
IV_INTERIOR_PROFILES
 10
-2.524999999999975
 20
55.000000000000071
 30
0.0
 42
1.0
  0
VERTEX
  5
781E
  8
IV_INTERIOR_PROFILES
 10
2.524999999999975
 20
55.000000000000071
 30
0.0
 42
1.0
  0
SEQEND
  5
781F
  8
IV_INTERIOR_PROFILES
  0
POLYLINE
  5
310
  8
IV_INTERIOR_PROFILES
 66
     1
 10
0.0
 20
0.0
 30
0.0
 70
   129
  0
VERTEX
  5
7820
  8
IV_INTERIOR_PROFILES
 10
0.9750000000000229
 20
42.50000000000005
 30
0.0
 42
1.0
  0
VERTEX
  5
7821
  8
IV_INTERIOR_PROFILES
 10
6.0249999999999764
 20
42.50000000000005
 30
0.0
 42
1.0
  0
SEQEND
  5
7822
  8
IV_INTERIOR_PROFILES
  0
POLYLINE
  5
311
  8
IV_INTERIOR_PROFILES
 66
     1
 10
0.0
 20
0.0
 30
0.0
 70
   129
  0
VERTEX
  5
7823
  8
IV_INTERIOR_PROFILES
 10
-2.524999999999975
 20
30.00000000000006
 30
0.0
 42
1.0
  0
VERTEX
  5
7824
  8
IV_INTERIOR_PROFILES
 10
2.524999999999975
 20
30.00000000000006
 30
0.0
 42
1.0
  0
SEQEND
  5
7825
  8
IV_INTERIOR_PROFILES
  0
POLYLINE
  5
312
  8
IV_INTERIOR_PROFILES
 66
     1
 10
0.0
 20
0.0
 30
0.0
 70
   129
  0
VERTEX
  5
7826
  8
IV_INTERIOR_PROFILES
 10
-2.524999999999975
 20
0.0000000000000568
 30
0.0
 42
1.0
  0
VERTEX
  5
7827
  8
IV_INTERIOR_PROFILES
 10
2.524999999999975
 20
0.0000000000000568
 30
0.0
 42
1.0
  0
SEQEND
  5
7828
  8
IV_INTERIOR_PROFILES
  0
POLYLINE
  5
313
  8
IV_INTERIOR_PROFILES
 66
     1
 10
0.0
 20
0.0
 30
0.0
 70
   129
  0
VERTEX
  5
7829
  8
IV_INTERIOR_PROFILES
 10
13.725000000000019
 20
15.00000000000006
 30
0.0
 42
1.0
  0
VERTEX
  5
782A
  8
IV_INTERIOR_PROFILES
 10
18.274999999999981
 20
15.00000000000006
 30
0.0
 42
1.0
  0
SEQEND
  5
782B
  8
IV_INTERIOR_PROFILES
  0
POLYLINE
  5
314
  8
IV_INTERIOR_PROFILES
 66
     1
 10
0.0
 20
0.0
 30
0.0
 70
   129
  0
VERTEX
  5
782C
  8
IV_INTERIOR_PROFILES
 10
10.975000000000019
 20
42.50000000000005
 30
0.0
 42
1.0
  0
VERTEX
  5
782D
  8
IV_INTERIOR_PROFILES
 10
16.024999999999981
 20
42.50000000000005
 30
0.0
 42
1.0
  0
SEQEND
  5
782E
  8
IV_INTERIOR_PROFILES
  0
POLYLINE
  5
315
  8
IV_INTERIOR_PROFILES
 66
     1
 10
0.0
 20
0.0
 30
0.0
 70
   129
  0
VERTEX
  5
782F
  8
IV_INTERIOR_PROFILES
 10
29.475000000000009
 20
55.000000000000071
 30
0.0
 42
1.0
  0
VERTEX
  5
7830
  8
IV_INTERIOR_PROFILES
 10
34.524999999999977
 20
55.000000000000071
 30
0.0
 42
1.0
  0
SEQEND
  5
7831
  8
IV_INTERIOR_PROFILES
  0
POLYLINE
  5
316
  8
IV_INTERIOR_PROFILES
 66
     1
 10
0.0
 20
0.0
 30
0.0
 70
   129
  0
VERTEX
  5
7832
  8
IV_INTERIOR_PROFILES
 10
13.725000000000019
 20
70.000000000000099
 30
0.0
 42
1.0
  0
VERTEX
  5
7833
  8
IV_INTERIOR_PROFILES
 10
18.274999999999981
 20
70.000000000000099
 30
0.0
 42
1.0
  0
SEQEND
  5
7834
  8
IV_INTERIOR_PROFILES
  0
POLYLINE
  5
317
  8
IV_INTERIOR_PROFILES
 66
     1
 10
0.0
 20
0.0
 30
0.0
 70
   129
  0
VERTEX
  5
7835
  8
IV_INTERIOR_PROFILES
 10
29.475000000000009
 20
85.000000000000028
 30
0.0
 42
1.0
  0
VERTEX
  5
7836
  8
IV_INTERIOR_PROFILES
 10
34.524999999999977
 20
85.000000000000028
 30
0.0
 42
1.0
  0
SEQEND
  5
7837
  8
IV_INTERIOR_PROFILES
  0
POLYLINE
  5
318
  8
IV_INTERIOR_PROFILES
 66
     1
 10
0.0
 20
0.0
 30
0.0
 70
   129
  0
VERTEX
  5
7838
  8
IV_INTERIOR_PROFILES
 10
20.975000000000009
 20
42.50000000000005
 30
0.0
 42
1.0
  0
VERTEX
  5
7839
  8
IV_INTERIOR_PROFILES
 10
26.024999999999981
 20
42.50000000000005
 30
0.0
 42
1.0
  0
SEQEND
  5
783A
  8
IV_INTERIOR_PROFILES
  0
POLYLINE
  5
319
  8
IV_INTERIOR_PROFILES
 66
     1
 10
0.0
 20
0.0
 30
0.0
 70
   129
  0
VERTEX
  5
783B
  8
IV_INTERIOR_PROFILES
 10
29.475000000000009
 20
30.00000000000006
 30
0.0
 42
1.0
  0
VERTEX
  5
783C
  8
IV_INTERIOR_PROFILES
 10
34.524999999999977
 20
30.00000000000006
 30
0.0
 42
1.0
  0
SEQEND
  5
783D
  8
IV_INTERIOR_PROFILES
  0
POLYLINE
  5
31A
  8
IV_INTERIOR_PROFILES
 66
     1
 10
0.0
 20
0.0
 30
0.0
 70
   129
  0
VERTEX
  5
783E
  8
IV_INTERIOR_PROFILES
 10
29.475000000000009
 20
0.0000000000000568
 30
0.0
 42
1.0
  0
VERTEX
  5
783F
  8
IV_INTERIOR_PROFILES
 10
34.524999999999977
 20
0.0000000000000568
 30
0.0
 42
1.0
  0
SEQEND
  5
7840
  8
IV_INTERIOR_PROFILES
  0
POLYLINE
  5
31B
  8
IV_INTERIOR_PROFILES
 66
     1
 10
0.0
 20
0.0
 30
0.0
 70
   129
  0
VERTEX
  5
7841
  8
IV_INTERIOR_PROFILES
 10
45.975000000000009
 20
85.500000000000014
 30
0.0
 42
1.0
  0
VERTEX
  5
7842
  8
IV_INTERIOR_PROFILES
 10
51.024999999999991
 20
85.500000000000014
 30
0.0
 42
1.0
  0
SEQEND
  5
7843
  8
IV_INTERIOR_PROFILES
  0
POLYLINE
  5
31C
  8
IV_INTERIOR_PROFILES
 66
     1
 10
0.0
 20
0.0
 30
0.0
 70
   129
  0
VERTEX
  5
7844
  8
IV_INTERIOR_PROFILES
 10
45.975000000000009
 20
75.500000000000028
 30
0.0
 42
1.0
  0
VERTEX
  5
7845
  8
IV_INTERIOR_PROFILES
 10
51.024999999999991
 20
75.500000000000028
 30
0.0
 42
1.0
  0
SEQEND
  5
7846
  8
IV_INTERIOR_PROFILES
  0
POLYLINE
  5
31D
  8
IV_INTERIOR_PROFILES
 66
     1
 10
0.0
 20
0.0
 30
0.0
 70
   129
  0
VERTEX
  5
7847
  8
IV_INTERIOR_PROFILES
 10
45.975000000000009
 20
65.500000000000014
 30
0.0
 42
1.0
  0
VERTEX
  5
7848
  8
IV_INTERIOR_PROFILES
 10
51.024999999999991
 20
65.500000000000014
 30
0.0
 42
1.0
  0
SEQEND
  5
7849
  8
IV_INTERIOR_PROFILES
  0
POLYLINE
  5
31E
  8
IV_INTERIOR_PROFILES
 66
     1
 10
0.0
 20
0.0
 30
0.0
 70
   129
  0
VERTEX
  5
784A
  8
IV_INTERIOR_PROFILES
 10
45.975000000000009
 20
52.000000000000092
 30
0.0
 42
1.0
  0
VERTEX
  5
784B
  8
IV_INTERIOR_PROFILES
 10
51.024999999999991
 20
52.000000000000092
 30
0.0
 42
1.0
  0
SEQEND
  5
784C
  8
IV_INTERIOR_PROFILES
  0
POLYLINE
  5
31F
  8
IV_INTERIOR_PROFILES
 66
     1
 10
0.0
 20
0.0
 30
0.0
 70
   129
  0
VERTEX
  5
784D
  8
IV_INTERIOR_PROFILES
 10
45.975000000000009
 20
19.50000000000006
 30
0.0
 42
1.0
  0
VERTEX
  5
784E
  8
IV_INTERIOR_PROFILES
 10
51.024999999999991
 20
19.50000000000006
 30
0.0
 42
1.0
  0
SEQEND
  5
784F
  8
IV_INTERIOR_PROFILES
  0
POLYLINE
  5
320
  8
IV_INTERIOR_PROFILES
 66
     1
 10
0.0
 20
0.0
 30
0.0
 70
   129
  0
VERTEX
  5
7850
  8
IV_INTERIOR_PROFILES
 10
45.975000000000009
 20
9.5000000000000568
 30
0.0
 42
1.0
  0
VERTEX
  5
7851
  8
IV_INTERIOR_PROFILES
 10
51.024999999999991
 20
9.5000000000000568
 30
0.0
 42
1.0
  0
SEQEND
  5
7852
  8
IV_INTERIOR_PROFILES
  0
POLYLINE
  5
321
  8
IV_INTERIOR_PROFILES
 66
     1
 10
0.0
 20
0.0
 30
0.0
 70
   129
  0
VERTEX
  5
7853
  8
IV_INTERIOR_PROFILES
 10
45.975000000000009
 20
-0.4999999999999434
 30
0.0
 42
1.0
  0
VERTEX
  5
7854
  8
IV_INTERIOR_PROFILES
 10
51.024999999999991
 20
-0.4999999999999434
 30
0.0
 42
1.0
  0
SEQEND
  5
7855
  8
IV_INTERIOR_PROFILES
  0
POLYLINE
  5
322
  8
IV_INTERIOR_PROFILES
 66
     1
 10
0.0
 20
0.0
 30
0.0
 70
   129
  0
VERTEX
  5
7856
  8
IV_INTERIOR_PROFILES
 10
55.974999999999888
 20
-0.4999999999999434
 30
0.0
 42
1.0
  0
VERTEX
  5
7857
  8
IV_INTERIOR_PROFILES
 10
61.024999999999991
 20
-0.4999999999999434
 30
0.0
 42
1.0
  0
SEQEND
  5
7858
  8
IV_INTERIOR_PROFILES
  0
POLYLINE
  5
323
  8
IV_INTERIOR_PROFILES
 66
     1
 10
0.0
 20
0.0
 30
0.0
 70
   129
  0
VERTEX
  5
7859
  8
IV_INTERIOR_PROFILES
 10
55.974999999999888
 20
9.5000000000000568
 30
0.0
 42
1.0
  0
VERTEX
  5
785A
  8
IV_INTERIOR_PROFILES
 10
61.024999999999991
 20
9.5000000000000568
 30
0.0
 42
1.0
  0
SEQEND
  5
785B
  8
IV_INTERIOR_PROFILES
  0
POLYLINE
  5
324
  8
IV_INTERIOR_PROFILES
 66
     1
 10
0.0
 20
0.0
 30
0.0
 70
   129
  0
VERTEX
  5
785C
  8
IV_INTERIOR_PROFILES
 10
55.974999999999888
 20
19.50000000000006
 30
0.0
 42
1.0
  0
VERTEX
  5
785D
  8
IV_INTERIOR_PROFILES
 10
61.024999999999991
 20
19.50000000000006
 30
0.0
 42
1.0
  0
SEQEND
  5
785E
  8
IV_INTERIOR_PROFILES
  0
POLYLINE
  5
325
  8
IV_INTERIOR_PROFILES
 66
     1
 10
0.0
 20
0.0
 30
0.0
 70
   129
  0
VERTEX
  5
785F
  8
IV_INTERIOR_PROFILES
 10
55.974999999999888
 20
65.500000000000014
 30
0.0
 42
1.0
  0
VERTEX
  5
7860
  8
IV_INTERIOR_PROFILES
 10
61.024999999999991
 20
65.500000000000014
 30
0.0
 42
1.0
  0
SEQEND
  5
7861
  8
IV_INTERIOR_PROFILES
  0
POLYLINE
  5
326
  8
IV_INTERIOR_PROFILES
 66
     1
 10
0.0
 20
0.0
 30
0.0
 70
   129
  0
VERTEX
  5
7862
  8
IV_INTERIOR_PROFILES
 10
55.974999999999888
 20
75.500000000000028
 30
0.0
 42
1.0
  0
VERTEX
  5
7863
  8
IV_INTERIOR_PROFILES
 10
61.024999999999991
 20
75.500000000000028
 30
0.0
 42
1.0
  0
SEQEND
  5
7864
  8
IV_INTERIOR_PROFILES
  0
POLYLINE
  5
327
  8
IV_INTERIOR_PROFILES
 66
     1
 10
0.0
 20
0.0
 30
0.0
 70
   129
  0
VERTEX
  5
7865
  8
IV_INTERIOR_PROFILES
 10
55.974999999999888
 20
85.500000000000014
 30
0.0
 42
1.0
  0
VERTEX
  5
7866
  8
IV_INTERIOR_PROFILES
 10
61.024999999999991
 20
85.500000000000014
 30
0.0
 42
1.0
  0
SEQEND
  5
7867
  8
IV_INTERIOR_PROFILES
  0
POLYLINE
  5
328
  8
IV_INTERIOR_PROFILES
 66
     1
 10
0.0
 20
0.0
 30
0.0
 70
   129
  0
VERTEX
  5
7868
  8
IV_INTERIOR_PROFILES
 10
65.974999999999909
 20
85.500000000000014
 30
0.0
 42
1.0
  0
VERTEX
  5
7869
  8
IV_INTERIOR_PROFILES
 10
71.024999999999977
 20
85.500000000000014
 30
0.0
 42
1.0
  0
SEQEND
  5
786A
  8
IV_INTERIOR_PROFILES
  0
POLYLINE
  5
329
  8
IV_INTERIOR_PROFILES
 66
     1
 10
0.0
 20
0.0
 30
0.0
 70
   129
  0
VERTEX
  5
786B
  8
IV_INTERIOR_PROFILES
 10
65.974999999999909
 20
75.500000000000028
 30
0.0
 42
1.0
  0
VERTEX
  5
786C
  8
IV_INTERIOR_PROFILES
 10
71.024999999999977
 20
75.500000000000028
 30
0.0
 42
1.0
  0
SEQEND
  5
786D
  8
IV_INTERIOR_PROFILES
  0
POLYLINE
  5
32A
  8
IV_INTERIOR_PROFILES
 66
     1
 10
0.0
 20
0.0
 30
0.0
 70
   129
  0
VERTEX
  5
786E
  8
IV_INTERIOR_PROFILES
 10
65.974999999999909
 20
65.500000000000014
 30
0.0
 42
1.0
  0
VERTEX
  5
786F
  8
IV_INTERIOR_PROFILES
 10
71.024999999999977
 20
65.500000000000014
 30
0.0
 42
1.0
  0
SEQEND
  5
7870
  8
IV_INTERIOR_PROFILES
  0
POLYLINE
  5
32B
  8
IV_INTERIOR_PROFILES
 66
     1
 10
0.0
 20
0.0
 30
0.0
 70
   129
  0
VERTEX
  5
7871
  8
IV_INTERIOR_PROFILES
 10
65.974999999999909
 20
52.000000000000092
 30
0.0
 42
1.0
  0
VERTEX
  5
7872
  8
IV_INTERIOR_PROFILES
 10
71.024999999999977
 20
52.000000000000092
 30
0.0
 42
1.0
  0
SEQEND
  5
7873
  8
IV_INTERIOR_PROFILES
  0
POLYLINE
  5
32C
  8
IV_INTERIOR_PROFILES
 66
     1
 10
0.0
 20
0.0
 30
0.0
 70
   129
  0
VERTEX
  5
7874
  8
IV_INTERIOR_PROFILES
 10
65.974999999999909
 20
19.50000000000006
 30
0.0
 42
1.0
  0
VERTEX
  5
7875
  8
IV_INTERIOR_PROFILES
 10
71.024999999999977
 20
19.50000000000006
 30
0.0
 42
1.0
  0
SEQEND
  5
7876
  8
IV_INTERIOR_PROFILES
  0
POLYLINE
  5
32D
  8
IV_INTERIOR_PROFILES
 66
     1
 10
0.0
 20
0.0
 30
0.0
 70
   129
  0
VERTEX
  5
7877
  8
IV_INTERIOR_PROFILES
 10
65.974999999999909
 20
9.5000000000000568
 30
0.0
 42
1.0
  0
VERTEX
  5
7878
  8
IV_INTERIOR_PROFILES
 10
71.024999999999977
 20
9.5000000000000568
 30
0.0
 42
1.0
  0
SEQEND
  5
7879
  8
IV_INTERIOR_PROFILES
  0
POLYLINE
  5
32E
  8
IV_INTERIOR_PROFILES
 66
     1
 10
0.0
 20
0.0
 30
0.0
 70
   129
  0
VERTEX
  5
787A
  8
IV_INTERIOR_PROFILES
 10
65.974999999999909
 20
-0.4999999999999434
 30
0.0
 42
1.0
  0
VERTEX
  5
787B
  8
IV_INTERIOR_PROFILES
 10
71.024999999999977
 20
-0.4999999999999434
 30
0.0
 42
1.0
  0
SEQEND
  5
787C
  8
IV_INTERIOR_PROFILES
  0
POLYLINE
  5
32F
  8
IV_INTERIOR_PROFILES
 66
     1
 10
0.0
 20
0.0
 30
0.0
 70
   129
  0
VERTEX
  5
787D
  8
IV_INTERIOR_PROFILES
 10
82.474999999999923
 20
0.0000000000000568
 30
0.0
 42
1.0
  0
VERTEX
  5
787E
  8
IV_INTERIOR_PROFILES
 10
87.524999999999949
 20
0.0000000000000568
 30
0.0
 42
1.0
  0
SEQEND
  5
787F
  8
IV_INTERIOR_PROFILES
  0
POLYLINE
  5
330
  8
IV_INTERIOR_PROFILES
 66
     1
 10
0.0
 20
0.0
 30
0.0
 70
   129
  0
VERTEX
  5
7880
  8
IV_INTERIOR_PROFILES
 10
82.474999999999923
 20
30.00000000000006
 30
0.0
 42
1.0
  0
VERTEX
  5
7881
  8
IV_INTERIOR_PROFILES
 10
87.524999999999949
 20
30.00000000000006
 30
0.0
 42
1.0
  0
SEQEND
  5
7882
  8
IV_INTERIOR_PROFILES
  0
POLYLINE
  5
331
  8
IV_INTERIOR_PROFILES
 66
     1
 10
0.0
 20
0.0
 30
0.0
 70
   129
  0
VERTEX
  5
7883
  8
IV_INTERIOR_PROFILES
 10
82.474999999999923
 20
55.000000000000071
 30
0.0
 42
1.0
  0
VERTEX
  5
7884
  8
IV_INTERIOR_PROFILES
 10
87.524999999999949
 20
55.000000000000071
 30
0.0
 42
1.0
  0
SEQEND
  5
7885
  8
IV_INTERIOR_PROFILES
  0
POLYLINE
  5
332
  8
IV_INTERIOR_PROFILES
 66
     1
 10
0.0
 20
0.0
 30
0.0
 70
   129
  0
VERTEX
  5
7886
  8
IV_INTERIOR_PROFILES
 10
82.474999999999923
 20
85.000000000000028
 30
0.0
 42
1.0
  0
VERTEX
  5
7887
  8
IV_INTERIOR_PROFILES
 10
87.524999999999949
 20
85.000000000000028
 30
0.0
 42
1.0
  0
SEQEND
  5
7888
  8
IV_INTERIOR_PROFILES
  0
POLYLINE
  5
333
  8
IV_INTERIOR_PROFILES
 66
     1
 10
0.0
 20
0.0
 30
0.0
 70
   129
  0
VERTEX
  5
7889
  8
IV_INTERIOR_PROFILES
 10
98.724999999999923
 20
70.000000000000099
 30
0.0
 42
1.0
  0
VERTEX
  5
788A
  8
IV_INTERIOR_PROFILES
 10
103.27499999999981
 20
70.000000000000099
 30
0.0
 42
1.0
  0
SEQEND
  5
788B
  8
IV_INTERIOR_PROFILES
  0
POLYLINE
  5
334
  8
IV_INTERIOR_PROFILES
 66
     1
 10
0.0
 20
0.0
 30
0.0
 70
   129
  0
VERTEX
  5
788C
  8
IV_INTERIOR_PROFILES
 10
90.974999999999923
 20
42.50000000000005
 30
0.0
 42
1.0
  0
VERTEX
  5
788D
  8
IV_INTERIOR_PROFILES
 10
96.024999999999864
 20
42.50000000000005
 30
0.0
 42
1.0
  0
SEQEND
  5
788E
  8
IV_INTERIOR_PROFILES
  0
POLYLINE
  5
335
  8
IV_INTERIOR_PROFILES
 66
     1
 10
0.0
 20
0.0
 30
0.0
 70
   129
  0
VERTEX
  5
788F
  8
IV_INTERIOR_PROFILES
 10
100.97499999999999
 20
42.50000000000005
 30
0.0
 42
1.0
  0
VERTEX
  5
7890
  8
IV_INTERIOR_PROFILES
 10
106.02499999999991
 20
42.50000000000005
 30
0.0
 42
1.0
  0
SEQEND
  5
7891
  8
IV_INTERIOR_PROFILES
  0
POLYLINE
  5
336
  8
IV_INTERIOR_PROFILES
 66
     1
 10
0.0
 20
0.0
 30
0.0
 70
   129
  0
VERTEX
  5
7892
  8
IV_INTERIOR_PROFILES
 10
98.724999999999923
 20
15.00000000000006
 30
0.0
 42
1.0
  0
VERTEX
  5
7893
  8
IV_INTERIOR_PROFILES
 10
103.27499999999981
 20
15.00000000000006
 30
0.0
 42
1.0
  0
SEQEND
  5
7894
  8
IV_INTERIOR_PROFILES
  0
POLYLINE
  5
337
  8
IV_INTERIOR_PROFILES
 66
     1
 10
0.0
 20
0.0
 30
0.0
 70
   129
  0
VERTEX
  5
7895
  8
IV_INTERIOR_PROFILES
 10
114.47499999999999
 20
0.0000000000000568
 30
0.0
 42
1.0
  0
VERTEX
  5
7896
  8
IV_INTERIOR_PROFILES
 10
119.52499999999991
 20
0.0000000000000568
 30
0.0
 42
1.0
  0
SEQEND
  5
7897
  8
IV_INTERIOR_PROFILES
  0
POLYLINE
  5
338
  8
IV_INTERIOR_PROFILES
 66
     1
 10
0.0
 20
0.0
 30
0.0
 70
   129
  0
VERTEX
  5
7898
  8
IV_INTERIOR_PROFILES
 10
114.47499999999999
 20
30.00000000000006
 30
0.0
 42
1.0
  0
VERTEX
  5
7899
  8
IV_INTERIOR_PROFILES
 10
119.52499999999991
 20
30.00000000000006
 30
0.0
 42
1.0
  0
SEQEND
  5
789A
  8
IV_INTERIOR_PROFILES
  0
POLYLINE
  5
339
  8
IV_INTERIOR_PROFILES
 66
     1
 10
0.0
 20
0.0
 30
0.0
 70
   129
  0
VERTEX
  5
789B
  8
IV_INTERIOR_PROFILES
 10
110.97499999999999
 20
42.50000000000005
 30
0.0
 42
1.0
  0
VERTEX
  5
789C
  8
IV_INTERIOR_PROFILES
 10
116.02500000000001
 20
42.50000000000005
 30
0.0
 42
1.0
  0
SEQEND
  5
789D
  8
IV_INTERIOR_PROFILES
  0
POLYLINE
  5
33A
  8
IV_INTERIOR_PROFILES
 66
     1
 10
0.0
 20
0.0
 30
0.0
 70
   129
  0
VERTEX
  5
789E
  8
IV_INTERIOR_PROFILES
 10
114.47499999999999
 20
55.000000000000071
 30
0.0
 42
1.0
  0
VERTEX
  5
789F
  8
IV_INTERIOR_PROFILES
 10
119.52499999999991
 20
55.000000000000071
 30
0.0
 42
1.0
  0
SEQEND
  5
78A0
  8
IV_INTERIOR_PROFILES
  0
POLYLINE
  5
33B
  8
IV_INTERIOR_PROFILES
 66
     1
 10
0.0
 20
0.0
 30
0.0
 70
   129
  0
VERTEX
  5
78A1
  8
IV_INTERIOR_PROFILES
 10
114.47499999999999
 20
85.000000000000028
 30
0.0
 42
1.0
  0
VERTEX
  5
78A2
  8
IV_INTERIOR_PROFILES
 10
119.52499999999991
 20
85.000000000000028
 30
0.0
 42
1.0
  0
SEQEND
  5
78A3
  8
IV_INTERIOR_PROFILES
  0
ENDBLK
  5
30C
  8
0
  0
BLOCK
  8
0
  2
Z-TOP-AND-BOTTOM-PLATE
 70
     0
 10
0.0
 20
0.0
 30
0.0
  3
Z-TOP-AND-BOTTOM-PLATE
  1

  0
POLYLINE
  5
376
  8
IV_OUTER_PROFILE
 66
     1
 10
0.0
 20
0.0
 30
0.0
 70
   129
  0
VERTEX
  5
78A4
  8
IV_OUTER_PROFILE
 10
71.25
 20
32.225000000000001
 30
0.0
 42
-0.4142135623730935
  0
VERTEX
  5
78A5
  8
IV_OUTER_PROFILE
 10
73.474999999999923
 20
30.0
 30
0.0
  0
VERTEX
  5
78A6
  8
IV_OUTER_PROFILE
 10
73.474999999999923
 20
23.0
 30
0.0
 42
1.0
  0
VERTEX
  5
78A7
  8
IV_OUTER_PROFILE
 10
85.524999999999977
 20
23.0
 30
0.0
  0
VERTEX
  5
78A8
  8
IV_OUTER_PROFILE
 10
85.524999999999977
 20
30.0
 30
0.0
 42
-0.4142135623730935
  0
VERTEX
  5
78A9
  8
IV_OUTER_PROFILE
 10
87.75
 20
32.225000000000001
 30
0.0
  0
VERTEX
  5
78AA
  8
IV_OUTER_PROFILE
 10
101.4999999999999
 20
32.225000000000001
 30
0.0
 42
-0.4142135623730946
  0
VERTEX
  5
78AB
  8
IV_OUTER_PROFILE
 10
107.7249999999998
 20
26.0
 30
0.0
  0
VERTEX
  5
78AC
  8
IV_OUTER_PROFILE
 10
107.7249999999998
 20
-61.999999999999972
 30
0.0
 42
-0.4142135623730958
  0
VERTEX
  5
78AD
  8
IV_OUTER_PROFILE
 10
101.5
 20
-68.224999999999994
 30
0.0
  0
VERTEX
  5
78AE
  8
IV_OUTER_PROFILE
 10
-16.5
 20
-68.224999999999994
 30
0.0
 42
-0.4142135623730952
  0
VERTEX
  5
78AF
  8
IV_OUTER_PROFILE
 10
-22.725000000000019
 20
-62.0
 30
0.0
  0
VERTEX
  5
78B0
  8
IV_OUTER_PROFILE
 10
-22.725000000000019
 20
26.0
 30
0.0
 42
-0.4142135623730946
  0
VERTEX
  5
78B1
  8
IV_OUTER_PROFILE
 10
-16.5
 20
32.225000000000001
 30
0.0
  0
SEQEND
  5
78B2
  8
IV_OUTER_PROFILE
  0
POLYLINE
  5
377
  8
IV_INTERIOR_PROFILES
 66
     1
 10
0.0
 20
0.0
 30
0.0
 70
   129
  0
VERTEX
  5
78B3
  8
IV_INTERIOR_PROFILES
 10
67.374999999999901
 20
-24.874999999999929
 30
0.0
  0
VERTEX
  5
78B4
  8
IV_INTERIOR_PROFILES
 10
17.625
 20
-24.874999999999929
 30
0.0
  0
VERTEX
  5
78B5
  8
IV_INTERIOR_PROFILES
 10
17.625
 20
-19.125000000000082
 30
0.0
  0
VERTEX
  5
78B6
  8
IV_INTERIOR_PROFILES
 10
67.374999999999901
 20
-19.12500000000006
 30
0.0
  0
SEQEND
  5
78B7
  8
IV_INTERIOR_PROFILES
  0
POLYLINE
  5
378
  8
IV_INTERIOR_PROFILES
 66
     1
 10
0.0
 20
0.0
 30
0.0
 70
   129
  0
VERTEX
  5
78B8
  8
IV_INTERIOR_PROFILES
 10
-19.84550807568894
 20
10.0
 30
0.0
 42
1.0
  0
VERTEX
  5
78B9
  8
IV_INTERIOR_PROFILES
 10
-14.79550807568887
 20
10.0
 30
0.0
 42
1.0
  0
SEQEND
  5
78BA
  8
IV_INTERIOR_PROFILES
  0
POLYLINE
  5
379
  8
IV_INTERIOR_PROFILES
 66
     1
 10
0.0
 20
0.0
 30
0.0
 70
   129
  0
VERTEX
  5
78BB
  8
IV_INTERIOR_PROFILES
 10
-7.875
 20
0.0
 30
0.0
 42
1.0
  0
VERTEX
  5
78BC
  8
IV_INTERIOR_PROFILES
 10
7.875
 20
0.0
 30
0.0
 42
1.0
  0
SEQEND
  5
78BD
  8
IV_INTERIOR_PROFILES
  0
POLYLINE
  5
37A
  8
IV_INTERIOR_PROFILES
 66
     1
 10
0.0
 20
0.0
 30
0.0
 70
   129
  0
VERTEX
  5
78BE
  8
IV_INTERIOR_PROFILES
 10
-14.82500000000004
 20
-59.0
 30
0.0
 42
1.0
  0
VERTEX
  5
78BF
  8
IV_INTERIOR_PROFILES
 10
-12.17500000000007
 20
-59.0
 30
0.0
 42
1.0
  0
SEQEND
  5
78C0
  8
IV_INTERIOR_PROFILES
  0
POLYLINE
  5
37B
  8
IV_INTERIOR_PROFILES
 66
     1
 10
0.0
 20
0.0
 30
0.0
 70
   129
  0
VERTEX
  5
78C1
  8
IV_INTERIOR_PROFILES
 10
5.1749999999999519
 20
-59.0
 30
0.0
 42
1.0
  0
VERTEX
  5
78C2
  8
IV_INTERIOR_PROFILES
 10
7.82499999999993
 20
-59.0
 30
0.0
 42
1.0
  0
SEQEND
  5
78C3
  8
IV_INTERIOR_PROFILES
  0
POLYLINE
  5
37C
  8
IV_INTERIOR_PROFILES
 66
     1
 10
0.0
 20
0.0
 30
0.0
 70
   129
  0
VERTEX
  5
78C4
  8
IV_INTERIOR_PROFILES
 10
39.975000000000023
 20
-58.0
 30
0.0
 42
1.0
  0
VERTEX
  5
78C5
  8
IV_INTERIOR_PROFILES
 10
45.024999999999963
 20
-58.0
 30
0.0
 42
1.0
  0
SEQEND
  5
78C6
  8
IV_INTERIOR_PROFILES
  0
POLYLINE
  5
37D
  8
IV_INTERIOR_PROFILES
 66
     1
 10
0.0
 20
0.0
 30
0.0
 70
   129
  0
VERTEX
  5
78C7
  8
IV_INTERIOR_PROFILES
 10
41.174999999999947
 20
-38.0
 30
0.0
 42
1.0
  0
VERTEX
  5
78C8
  8
IV_INTERIOR_PROFILES
 10
43.825000000000017
 20
-38.0
 30
0.0
 42
1.0
  0
SEQEND
  5
78C9
  8
IV_INTERIOR_PROFILES
  0
POLYLINE
  5
37E
  8
IV_INTERIOR_PROFILES
 66
     1
 10
0.0
 20
0.0
 30
0.0
 70
   129
  0
VERTEX
  5
78CA
  8
IV_INTERIOR_PROFILES
 10
14.79550807568876
 20
-10.0
 30
0.0
 42
1.0
  0
VERTEX
  5
78CB
  8
IV_INTERIOR_PROFILES
 10
19.84550807568883
 20
-10.0
 30
0.0
 42
1.0
  0
SEQEND
  5
78CC
  8
IV_INTERIOR_PROFILES
  0
POLYLINE
  5
37F
  8
IV_INTERIOR_PROFILES
 66
     1
 10
0.0
 20
0.0
 30
0.0
 70
   129
  0
VERTEX
  5
78CD
  8
IV_INTERIOR_PROFILES
 10
16.974999999999898
 20
11.5
 30
0.0
 42
1.0
  0
VERTEX
  5
78CE
  8
IV_INTERIOR_PROFILES
 10
23.024999999999981
 20
11.5
 30
0.0
 42
1.0
  0
SEQEND
  5
78CF
  8
IV_INTERIOR_PROFILES
  0
POLYLINE
  5
380
  8
IV_INTERIOR_PROFILES
 66
     1
 10
0.0
 20
0.0
 30
0.0
 70
   129
  0
VERTEX
  5
78D0
  8
IV_INTERIOR_PROFILES
 10
25.724999999999909
 20
27.0
 30
0.0
 42
1.0
  0
VERTEX
  5
78D1
  8
IV_INTERIOR_PROFILES
 10
28.274999999999981
 20
27.0
 30
0.0
 42
1.0
  0
SEQEND
  5
78D2
  8
IV_INTERIOR_PROFILES
  0
POLYLINE
  5
381
  8
IV_INTERIOR_PROFILES
 66
     1
 10
0.0
 20
0.0
 30
0.0
 70
   129
  0
VERTEX
  5
78D3
  8
IV_INTERIOR_PROFILES
 10
25.724999999999909
 20
-4.0
 30
0.0
 42
1.0
  0
VERTEX
  5
78D4
  8
IV_INTERIOR_PROFILES
 10
28.274999999999981
 20
-4.0
 30
0.0
 42
1.0
  0
SEQEND
  5
78D5
  8
IV_INTERIOR_PROFILES
  0
POLYLINE
  5
382
  8
IV_INTERIOR_PROFILES
 66
     1
 10
0.0
 20
0.0
 30
0.0
 70
   129
  0
VERTEX
  5
78D6
  8
IV_INTERIOR_PROFILES
 10
37.72500000000003
 20
11.5
 30
0.0
 42
1.0
  0
VERTEX
  5
78D7
  8
IV_INTERIOR_PROFILES
 10
47.274999999999977
 20
11.5
 30
0.0
 42
1.0
  0
SEQEND
  5
78D8
  8
IV_INTERIOR_PROFILES
  0
POLYLINE
  5
383
  8
IV_INTERIOR_PROFILES
 66
     1
 10
0.0
 20
0.0
 30
0.0
 70
   129
  0
VERTEX
  5
78D9
  8
IV_INTERIOR_PROFILES
 10
39.975000000000023
 20
-14.0
 30
0.0
 42
1.0
  0
VERTEX
  5
78DA
  8
IV_INTERIOR_PROFILES
 10
45.024999999999963
 20
-14.0
 30
0.0
 42
1.0
  0
SEQEND
  5
78DB
  8
IV_INTERIOR_PROFILES
  0
POLYLINE
  5
384
  8
IV_INTERIOR_PROFILES
 66
     1
 10
0.0
 20
0.0
 30
0.0
 70
   129
  0
VERTEX
  5
78DC
  8
IV_INTERIOR_PROFILES
 10
66.174999999999969
 20
-59.0
 30
0.0
 42
1.0
  0
VERTEX
  5
78DD
  8
IV_INTERIOR_PROFILES
 10
68.825000000000045
 20
-59.0
 30
0.0
 42
1.0
  0
SEQEND
  5
78DE
  8
IV_INTERIOR_PROFILES
  0
POLYLINE
  5
385
  8
IV_INTERIOR_PROFILES
 66
     1
 10
0.0
 20
0.0
 30
0.0
 70
   129
  0
VERTEX
  5
78DF
  8
IV_INTERIOR_PROFILES
 10
66.174999999999969
 20
-38.0
 30
0.0
 42
1.0
  0
VERTEX
  5
78E0
  8
IV_INTERIOR_PROFILES
 10
68.825000000000045
 20
-38.0
 30
0.0
 42
1.0
  0
SEQEND
  5
78E1
  8
IV_INTERIOR_PROFILES
  0
POLYLINE
  5
386
  8
IV_INTERIOR_PROFILES
 66
     1
 10
0.0
 20
0.0
 30
0.0
 70
   129
  0
VERTEX
  5
78E2
  8
IV_INTERIOR_PROFILES
 10
97.174999999999855
 20
-38.0
 30
0.0
 42
1.0
  0
VERTEX
  5
78E3
  8
IV_INTERIOR_PROFILES
 10
99.824999999999804
 20
-38.0
 30
0.0
 42
1.0
  0
SEQEND
  5
78E4
  8
IV_INTERIOR_PROFILES
  0
POLYLINE
  5
387
  8
IV_INTERIOR_PROFILES
 66
     1
 10
0.0
 20
0.0
 30
0.0
 70
   129
  0
VERTEX
  5
78E5
  8
IV_INTERIOR_PROFILES
 10
97.174999999999855
 20
-59.0
 30
0.0
 42
1.0
  0
VERTEX
  5
78E6
  8
IV_INTERIOR_PROFILES
 10
99.824999999999804
 20
-59.0
 30
0.0
 42
1.0
  0
SEQEND
  5
78E7
  8
IV_INTERIOR_PROFILES
  0
POLYLINE
  5
388
  8
IV_INTERIOR_PROFILES
 66
     1
 10
0.0
 20
0.0
 30
0.0
 70
   129
  0
VERTEX
  5
78E8
  8
IV_INTERIOR_PROFILES
 10
99.795508075688772
 20
10.0
 30
0.0
 42
1.0
  0
VERTEX
  5
78E9
  8
IV_INTERIOR_PROFILES
 10
104.8455080756887
 20
10.0
 30
0.0
 42
1.0
  0
SEQEND
  5
78EA
  8
IV_INTERIOR_PROFILES
  0
POLYLINE
  5
389
  8
IV_INTERIOR_PROFILES
 66
     1
 10
0.0
 20
0.0
 30
0.0
 70
   129
  0
VERTEX
  5
78EB
  8
IV_INTERIOR_PROFILES
 10
77.125
 20
0.0
 30
0.0
 42
1.0
  0
VERTEX
  5
78EC
  8
IV_INTERIOR_PROFILES
 10
92.874999999999986
 20
0.0
 30
0.0
 42
1.0
  0
SEQEND
  5
78ED
  8
IV_INTERIOR_PROFILES
  0
POLYLINE
  5
38A
  8
IV_INTERIOR_PROFILES
 66
     1
 10
0.0
 20
0.0
 30
0.0
 70
   129
  0
VERTEX
  5
78EE
  8
IV_INTERIOR_PROFILES
 10
65.154491924311046
 20
-10.0
 30
0.0
 42
1.0
  0
VERTEX
  5
78EF
  8
IV_INTERIOR_PROFILES
 10
70.204491924311014
 20
-10.0
 30
0.0
 42
1.0
  0
SEQEND
  5
78F0
  8
IV_INTERIOR_PROFILES
  0
POLYLINE
  5
38B
  8
IV_INTERIOR_PROFILES
 66
     1
 10
0.0
 20
0.0
 30
0.0
 70
   129
  0
VERTEX
  5
78F1
  8
IV_INTERIOR_PROFILES
 10
61.975000000000009
 20
11.5
 30
0.0
 42
1.0
  0
VERTEX
  5
78F2
  8
IV_INTERIOR_PROFILES
 10
68.024999999999977
 20
11.5
 30
0.0
 42
1.0
  0
SEQEND
  5
78F3
  8
IV_INTERIOR_PROFILES
  0
POLYLINE
  5
38C
  8
IV_INTERIOR_PROFILES
 66
     1
 10
0.0
 20
0.0
 30
0.0
 70
   129
  0
VERTEX
  5
78F4
  8
IV_INTERIOR_PROFILES
 10
56.725000000000023
 20
27.0
 30
0.0
 42
1.0
  0
VERTEX
  5
78F5
  8
IV_INTERIOR_PROFILES
 10
59.274999999999977
 20
27.0
 30
0.0
 42
1.0
  0
SEQEND
  5
78F6
  8
IV_INTERIOR_PROFILES
  0
POLYLINE
  5
38D
  8
IV_INTERIOR_PROFILES
 66
     1
 10
0.0
 20
0.0
 30
0.0
 70
   129
  0
VERTEX
  5
78F7
  8
IV_INTERIOR_PROFILES
 10
56.725000000000023
 20
-4.0
 30
0.0
 42
1.0
  0
VERTEX
  5
78F8
  8
IV_INTERIOR_PROFILES
 10
59.274999999999977
 20
-4.0
 30
0.0
 42
1.0
  0
SEQEND
  5
78F9
  8
IV_INTERIOR_PROFILES
  0
ENDBLK
  5
375
  8
0
  0
BLOCK
  8
0
  2
Y-PLATE
 70
     0
 10
0.0
 20
0.0
 30
0.0
  3
Y-PLATE
  1

  0
POLYLINE
  5
5E7
  8
IV_OUTER_PROFILE
 66
     1
 10
0.0
 20
0.0
 30
0.0
 70
   129
  0
VERTEX
  5
78FA
  8
IV_OUTER_PROFILE
 10
-6.0
 20
-39.999999999999922
 30
0.0
  0
VERTEX
  5
78FB
  8
IV_OUTER_PROFILE
 10
0.0
 20
-39.999999999999922
 30
0.0
  0
VERTEX
  5
78FC
  8
IV_OUTER_PROFILE
 10
0.0
 20
0.0
 30
0.0
  0
VERTEX
  5
78FD
  8
IV_OUTER_PROFILE
 10
220.44999999999999
 20
0.0
 30
0.0
  0
VERTEX
  5
78FE
  8
IV_OUTER_PROFILE
 10
220.44999999999999
 20
-39.99999999999995
 30
0.0
  0
VERTEX
  5
78FF
  8
IV_OUTER_PROFILE
 10
226.44999999999999
 20
-39.999999999999922
 30
0.0
  0
VERTEX
  5
7900
  8
IV_OUTER_PROFILE
 10
226.44999999999999
 20
-90.449999999999946
 30
0.0
  0
VERTEX
  5
7901
  8
IV_OUTER_PROFILE
 10
220.44999999999999
 20
-90.449999999999946
 30
0.0
  0
VERTEX
  5
7902
  8
IV_OUTER_PROFILE
 10
220.44999999999999
 20
-130.4499999999999
 30
0.0
  0
VERTEX
  5
7903
  8
IV_OUTER_PROFILE
 10
0.0
 20
-130.4499999999999
 30
0.0
  0
VERTEX
  5
7904
  8
IV_OUTER_PROFILE
 10
0.0
 20
-90.44999999999996
 30
0.0
  0
VERTEX
  5
7905
  8
IV_OUTER_PROFILE
 10
-6.0
 20
-90.449999999999946
 30
0.0
  0
SEQEND
  5
7906
  8
IV_OUTER_PROFILE
  0
POLYLINE
  5
5E8
  8
IV_INTERIOR_PROFILES
 66
     1
 10
0.0
 20
0.0
 30
0.0
 70
   129
  0
VERTEX
  5
7907
  8
IV_INTERIOR_PROFILES
 10
9.1999999999999336
 20
-12.72499999999993
 30
0.0
 42
1.0
  0
VERTEX
  5
7908
  8
IV_INTERIOR_PROFILES
 10
14.25
 20
-12.72499999999993
 30
0.0
 42
1.0
  0
SEQEND
  5
7909
  8
IV_INTERIOR_PROFILES
  0
POLYLINE
  5
5E9
  8
IV_INTERIOR_PROFILES
 66
     1
 10
0.0
 20
0.0
 30
0.0
 70
   129
  0
VERTEX
  5
790A
  8
IV_INTERIOR_PROFILES
 10
9.1999999999999336
 20
-42.724999999999902
 30
0.0
 42
1.0
  0
VERTEX
  5
790B
  8
IV_INTERIOR_PROFILES
 10
14.25
 20
-42.724999999999902
 30
0.0
 42
1.0
  0
SEQEND
  5
790C
  8
IV_INTERIOR_PROFILES
  0
POLYLINE
  5
5EA
  8
IV_INTERIOR_PROFILES
 66
     1
 10
0.0
 20
0.0
 30
0.0
 70
   129
  0
VERTEX
  5
790D
  8
IV_INTERIOR_PROFILES
 10
9.1999999999999336
 20
-87.724999999999909
 30
0.0
 42
1.0
  0
VERTEX
  5
790E
  8
IV_INTERIOR_PROFILES
 10
14.25
 20
-87.724999999999909
 30
0.0
 42
1.0
  0
SEQEND
  5
790F
  8
IV_INTERIOR_PROFILES
  0
POLYLINE
  5
5EB
  8
IV_INTERIOR_PROFILES
 66
     1
 10
0.0
 20
0.0
 30
0.0
 70
   129
  0
VERTEX
  5
7910
  8
IV_INTERIOR_PROFILES
 10
9.1999999999999336
 20
-117.72499999999989
 30
0.0
 42
1.0
  0
VERTEX
  5
7911
  8
IV_INTERIOR_PROFILES
 10
14.25
 20
-117.72499999999989
 30
0.0
 42
1.0
  0
SEQEND
  5
7912
  8
IV_INTERIOR_PROFILES
  0
POLYLINE
  5
5EC
  8
IV_INTERIOR_PROFILES
 66
     1
 10
0.0
 20
0.0
 30
0.0
 70
   129
  0
VERTEX
  5
7913
  8
IV_INTERIOR_PROFILES
 10
41.200000000000031
 20
-117.72499999999989
 30
0.0
 42
1.0
  0
VERTEX
  5
7914
  8
IV_INTERIOR_PROFILES
 10
46.25
 20
-117.72499999999989
 30
0.0
 42
1.0
  0
SEQEND
  5
7915
  8
IV_INTERIOR_PROFILES
  0
POLYLINE
  5
5ED
  8
IV_INTERIOR_PROFILES
 66
     1
 10
0.0
 20
0.0
 30
0.0
 70
   129
  0
VERTEX
  5
7916
  8
IV_INTERIOR_PROFILES
 10
41.200000000000031
 20
-87.724999999999909
 30
0.0
 42
1.0
  0
VERTEX
  5
7917
  8
IV_INTERIOR_PROFILES
 10
46.25
 20
-87.724999999999909
 30
0.0
 42
1.0
  0
SEQEND
  5
7918
  8
IV_INTERIOR_PROFILES
  0
POLYLINE
  5
5EE
  8
IV_INTERIOR_PROFILES
 66
     1
 10
0.0
 20
0.0
 30
0.0
 70
   129
  0
VERTEX
  5
7919
  8
IV_INTERIOR_PROFILES
 10
41.200000000000031
 20
-42.724999999999902
 30
0.0
 42
1.0
  0
VERTEX
  5
791A
  8
IV_INTERIOR_PROFILES
 10
46.25
 20
-42.724999999999902
 30
0.0
 42
1.0
  0
SEQEND
  5
791B
  8
IV_INTERIOR_PROFILES
  0
POLYLINE
  5
5EF
  8
IV_INTERIOR_PROFILES
 66
     1
 10
0.0
 20
0.0
 30
0.0
 70
   129
  0
VERTEX
  5
791C
  8
IV_INTERIOR_PROFILES
 10
41.200000000000031
 20
-12.72499999999993
 30
0.0
 42
1.0
  0
VERTEX
  5
791D
  8
IV_INTERIOR_PROFILES
 10
46.25
 20
-12.72499999999993
 30
0.0
 42
1.0
  0
SEQEND
  5
791E
  8
IV_INTERIOR_PROFILES
  0
POLYLINE
  5
5F0
  8
IV_INTERIOR_PROFILES
 66
     1
 10
0.0
 20
0.0
 30
0.0
 70
   129
  0
VERTEX
  5
791F
  8
IV_INTERIOR_PROFILES
 10
97.700000000000031
 20
-74.724999999999923
 30
0.0
 42
1.0
  0
VERTEX
  5
7920
  8
IV_INTERIOR_PROFILES
 10
102.75
 20
-74.724999999999923
 30
0.0
 42
1.0
  0
SEQEND
  5
7921
  8
IV_INTERIOR_PROFILES
  0
POLYLINE
  5
5F1
  8
IV_INTERIOR_PROFILES
 66
     1
 10
0.0
 20
0.0
 30
0.0
 70
   129
  0
VERTEX
  5
7922
  8
IV_INTERIOR_PROFILES
 10
117.7
 20
-74.724999999999923
 30
0.0
 42
1.0
  0
VERTEX
  5
7923
  8
IV_INTERIOR_PROFILES
 10
122.75
 20
-74.724999999999923
 30
0.0
 42
1.0
  0
SEQEND
  5
7924
  8
IV_INTERIOR_PROFILES
  0
POLYLINE
  5
5F2
  8
IV_INTERIOR_PROFILES
 66
     1
 10
0.0
 20
0.0
 30
0.0
 70
   129
  0
VERTEX
  5
7925
  8
IV_INTERIOR_PROFILES
 10
174.19999999999999
 20
-12.72499999999993
 30
0.0
 42
1.0
  0
VERTEX
  5
7926
  8
IV_INTERIOR_PROFILES
 10
179.25
 20
-12.72499999999993
 30
0.0
 42
1.0
  0
SEQEND
  5
7927
  8
IV_INTERIOR_PROFILES
  0
POLYLINE
  5
5F3
  8
IV_INTERIOR_PROFILES
 66
     1
 10
0.0
 20
0.0
 30
0.0
 70
   129
  0
VERTEX
  5
7928
  8
IV_INTERIOR_PROFILES
 10
174.19999999999999
 20
-42.724999999999902
 30
0.0
 42
1.0
  0
VERTEX
  5
7929
  8
IV_INTERIOR_PROFILES
 10
179.25
 20
-42.724999999999902
 30
0.0
 42
1.0
  0
SEQEND
  5
792A
  8
IV_INTERIOR_PROFILES
  0
POLYLINE
  5
5F4
  8
IV_INTERIOR_PROFILES
 66
     1
 10
0.0
 20
0.0
 30
0.0
 70
   129
  0
VERTEX
  5
792B
  8
IV_INTERIOR_PROFILES
 10
206.19999999999999
 20
-12.72499999999993
 30
0.0
 42
1.0
  0
VERTEX
  5
792C
  8
IV_INTERIOR_PROFILES
 10
211.25
 20
-12.72499999999993
 30
0.0
 42
1.0
  0
SEQEND
  5
792D
  8
IV_INTERIOR_PROFILES
  0
POLYLINE
  5
5F5
  8
IV_INTERIOR_PROFILES
 66
     1
 10
0.0
 20
0.0
 30
0.0
 70
   129
  0
VERTEX
  5
792E
  8
IV_INTERIOR_PROFILES
 10
206.19999999999999
 20
-42.724999999999902
 30
0.0
 42
1.0
  0
VERTEX
  5
792F
  8
IV_INTERIOR_PROFILES
 10
211.25
 20
-42.724999999999902
 30
0.0
 42
1.0
  0
SEQEND
  5
7930
  8
IV_INTERIOR_PROFILES
  0
POLYLINE
  5
5F6
  8
IV_INTERIOR_PROFILES
 66
     1
 10
0.0
 20
0.0
 30
0.0
 70
   129
  0
VERTEX
  5
7931
  8
IV_INTERIOR_PROFILES
 10
206.19999999999999
 20
-87.724999999999909
 30
0.0
 42
1.0
  0
VERTEX
  5
7932
  8
IV_INTERIOR_PROFILES
 10
211.25
 20
-87.724999999999909
 30
0.0
 42
1.0
  0
SEQEND
  5
7933
  8
IV_INTERIOR_PROFILES
  0
POLYLINE
  5
5F7
  8
IV_INTERIOR_PROFILES
 66
     1
 10
0.0
 20
0.0
 30
0.0
 70
   129
  0
VERTEX
  5
7934
  8
IV_INTERIOR_PROFILES
 10
174.19999999999999
 20
-87.724999999999909
 30
0.0
 42
1.0
  0
VERTEX
  5
7935
  8
IV_INTERIOR_PROFILES
 10
179.25
 20
-87.724999999999909
 30
0.0
 42
1.0
  0
SEQEND
  5
7936
  8
IV_INTERIOR_PROFILES
  0
POLYLINE
  5
5F8
  8
IV_INTERIOR_PROFILES
 66
     1
 10
0.0
 20
0.0
 30
0.0
 70
   129
  0
VERTEX
  5
7937
  8
IV_INTERIOR_PROFILES
 10
174.19999999999999
 20
-117.72499999999989
 30
0.0
 42
1.0
  0
VERTEX
  5
7938
  8
IV_INTERIOR_PROFILES
 10
179.25
 20
-117.72499999999989
 30
0.0
 42
1.0
  0
SEQEND
  5
7939
  8
IV_INTERIOR_PROFILES
  0
POLYLINE
  5
5F9
  8
IV_INTERIOR_PROFILES
 66
     1
 10
0.0
 20
0.0
 30
0.0
 70
   129
  0
VERTEX
  5
793A
  8
IV_INTERIOR_PROFILES
 10
206.19999999999999
 20
-117.72499999999989
 30
0.0
 42
1.0
  0
VERTEX
  5
793B
  8
IV_INTERIOR_PROFILES
 10
211.25
 20
-117.72499999999989
 30
0.0
 42
1.0
  0
SEQEND
  5
793C
  8
IV_INTERIOR_PROFILES
  0
ENDBLK
  5
5E6
  8
0
  0
BLOCK
  8
0
  2
Y-SIDE-PLATE
 70
     0
 10
0.0
 20
0.0
 30
0.0
  3
Y-SIDE-PLATE
  1

  0
POLYLINE
  5
63E
  8
IV_OUTER_PROFILE
 66
     1
 10
0.0
 20
0.0
 30
0.0
 70
   129
  0
VERTEX
  5
793D
  8
IV_OUTER_PROFILE
 10
354.43756682300892
 20
0.0
 30
0.0
 42
-0.3599537539956701
  0
VERTEX
  5
793E
  8
IV_OUTER_PROFILE
 10
364.48098960230209
 20
-8.3065934017080139
 30
0.0
  0
VERTEX
  5
793F
  8
IV_OUTER_PROFILE
 10
373.62354699890682
 20
-56.17057036040184
 30
0.0
 42
-0.4142135623730968
  0
VERTEX
  5
7940
  8
IV_OUTER_PROFILE
 10
365.49853081790519
 20
-68.132399737987214
 30
0.0
  0
VERTEX
  5
7941
  8
IV_OUTER_PROFILE
 10
25.421850939092572
 20
-133.0908666811313
 30
0.0
  0
VERTEX
  5
7942
  8
IV_OUTER_PROFILE
 10
20.731370258671969
 20
-108.5348207659885
 30
0.0
  0
VERTEX
  5
7943
  8
IV_OUTER_PROFILE
 10
8.9444682194034613
 20
-110.7862514925903
 30
0.0
  0
VERTEX
  5
7944
  8
IV_OUTER_PROFILE
 10
4.1695588867353282
 20
-85.788196750974947
 30
0.0
  0
VERTEX
  5
7945
  8
IV_OUTER_PROFILE
 10
15.956460926003841
 20
-83.536766024373094
 30
0.0
  0
VERTEX
  5
7946
  8
IV_OUTER_PROFILE
 10
13.254744054081581
 20
-69.392483577250744
 30
0.0
  0
VERTEX
  5
7947
  8
IV_OUTER_PROFILE
 10
23.519171246611339
 20
-67.431862652834937
 30
0.0
  0
VERTEX
  5
7948
  8
IV_OUTER_PROFILE
 10
24.063267005540069
 20
-70.280363978991602
 30
0.0
  0
VERTEX
  5
7949
  8
IV_OUTER_PROFILE
 10
28.532467362096099
 20
-69.426696495155099
 30
0.0
  0
VERTEX
  5
794A
  8
IV_OUTER_PROFILE
 10
26.365465287741809
 20
-58.081803282359111
 30
0.0
  0
VERTEX
  5
794B
  8
IV_OUTER_PROFILE
 10
21.8962649311859
 20
-58.93547076619565
 30
0.0
  0
VERTEX
  5
794C
  8
IV_OUTER_PROFILE
 10
22.44036069011463
 20
-61.783972092352279
 30
0.0
  0
VERTEX
  5
794D
  8
IV_OUTER_PROFILE
 10
12.175933497584991
 20
-63.744593016768071
 30
0.0
  0
VERTEX
  5
794E
  8
IV_OUTER_PROFILE
 10
9.4742166256627343
 20
-49.600310569645771
 30
0.0
  0
VERTEX
  5
794F
  8
IV_OUTER_PROFILE
 10
-2.3126854136058901
 20
-51.851741296247589
 30
0.0
  0
VERTEX
  5
7950
  8
IV_OUTER_PROFILE
 10
-7.0875947462740188
 20
-26.853686554632208
 30
0.0
  0
VERTEX
  5
7951
  8
IV_OUTER_PROFILE
 10
4.699307292994602
 20
-24.602255828030408
 30
0.0
  0
VERTEX
  5
7952
  8
IV_OUTER_PROFILE
 10
0.0
 20
0.0
 30
0.0
  0
SEQEND
  5
7953
  8
IV_OUTER_PROFILE
  0
POLYLINE
  5
63F
  8
IV_INTERIOR_PROFILES
 66
     1
 10
0.0
 20
0.0
 30
0.0
 70
   129
  0
VERTEX
  5
7954
  8
IV_INTERIOR_PROFILES
 10
191.4587969921576
 20
-89.057185874599838
 30
0.0
  0
VERTEX
  5
7955
  8
IV_INTERIOR_PROFILES
 10
240.3253283632919
 20
-79.723129320563004
 30
0.0
  0
VERTEX
  5
7956
  8
IV_INTERIOR_PROFILES
 10
241.40413891978861
 20
-85.371019881045726
 30
0.0
  0
VERTEX
  5
7957
  8
IV_INTERIOR_PROFILES
 10
192.53760754865439
 20
-94.705076435082574
 30
0.0
  0
SEQEND
  5
7958
  8
IV_INTERIOR_PROFILES
  0
POLYLINE
  5
640
  8
IV_INTERIOR_PROFILES
 66
     1
 10
0.0
 20
0.0
 30
0.0
 70
   129
  0
VERTEX
  5
7959
  8
IV_INTERIOR_PROFILES
 10
339.62832258035968
 20
-66.609097159363571
 30
0.0
  0
VERTEX
  5
795A
  8
IV_INTERIOR_PROFILES
 10
290.76179120922592
 20
-75.943153713400349
 30
0.0
  0
VERTEX
  5
795B
  8
IV_INTERIOR_PROFILES
 10
289.6829806527291
 20
-70.295263152917698
 30
0.0
  0
VERTEX
  5
795C
  8
IV_INTERIOR_PROFILES
 10
338.5495120238632
 20
-60.961206598880892
 30
0.0
  0
SEQEND
  5
795D
  8
IV_INTERIOR_PROFILES
  0
POLYLINE
  5
641
  8
IV_INTERIOR_PROFILES
 66
     1
 10
0.0
 20
0.0
 30
0.0
 70
   129
  0
VERTEX
  5
795E
  8
IV_INTERIOR_PROFILES
 10
64.691029853734449
 20
-40.60727955213823
 30
0.0
 42
1.0
  0
VERTEX
  5
795F
  8
IV_INTERIOR_PROFILES
 10
67.341029853734426
 20
-40.60727955213823
 30
0.0
 42
1.0
  0
SEQEND
  5
7960
  8
IV_INTERIOR_PROFILES
  0
POLYLINE
  5
642
  8
IV_INTERIOR_PROFILES
 66
     1
 10
0.0
 20
0.0
 30
0.0
 70
   129
  0
VERTEX
  5
7961
  8
IV_INTERIOR_PROFILES
 10
68.4434143980708
 20
-60.252116284252502
 30
0.0
 42
1.0
  0
VERTEX
  5
7962
  8
IV_INTERIOR_PROFILES
 10
71.093414398070877
 20
-60.252116284252502
 30
0.0
 42
1.0
  0
SEQEND
  5
7963
  8
IV_INTERIOR_PROFILES
  0
POLYLINE
  5
643
  8
IV_INTERIOR_PROFILES
 66
     1
 10
0.0
 20
0.0
 30
0.0
 70
   129
  0
VERTEX
  5
7964
  8
IV_INTERIOR_PROFILES
 10
84.380012286370274
 20
-31.756066597556512
 30
0.0
 42
1.0
  0
VERTEX
  5
7965
  8
IV_INTERIOR_PROFILES
 10
87.030012286370265
 20
-31.756066597556512
 30
0.0
 42
1.0
  0
SEQEND
  5
7966
  8
IV_INTERIOR_PROFILES
  0
POLYLINE
  5
644
  8
IV_INTERIOR_PROFILES
 66
     1
 10
0.0
 20
0.0
 30
0.0
 70
   129
  0
VERTEX
  5
7967
  8
IV_INTERIOR_PROFILES
 10
108.93605820151311
 20
-27.065585917135909
 30
0.0
 42
1.0
  0
VERTEX
  5
7968
  8
IV_INTERIOR_PROFILES
 10
111.5860582015131
 20
-27.065585917135909
 30
0.0
 42
1.0
  0
SEQEND
  5
7969
  8
IV_INTERIOR_PROFILES
  0
POLYLINE
  5
645
  8
IV_INTERIOR_PROFILES
 66
     1
 10
0.0
 20
0.0
 30
0.0
 70
   129
  0
VERTEX
  5
796A
  8
IV_INTERIOR_PROFILES
 10
112.8760619730664
 20
-47.69266448585585
 30
0.0
 42
1.0
  0
VERTEX
  5
796B
  8
IV_INTERIOR_PROFILES
 10
115.52606197306631
 20
-47.69266448585585
 30
0.0
 42
1.0
  0
SEQEND
  5
796C
  8
IV_INTERIOR_PROFILES
  0
POLYLINE
  5
646
  8
IV_INTERIOR_PROFILES
 66
     1
 10
0.0
 20
0.0
 30
0.0
 70
   129
  0
VERTEX
  5
796D
  8
IV_INTERIOR_PROFILES
 10
139.38555513629001
 20
-21.249389873414501
 30
0.0
 42
1.0
  0
VERTEX
  5
796E
  8
IV_INTERIOR_PROFILES
 10
142.0355551362901
 20
-21.249389873414501
 30
0.0
 42
1.0
  0
SEQEND
  5
796F
  8
IV_INTERIOR_PROFILES
  0
POLYLINE
  5
647
  8
IV_INTERIOR_PROFILES
 66
     1
 10
0.0
 20
0.0
 30
0.0
 70
   129
  0
VERTEX
  5
7970
  8
IV_INTERIOR_PROFILES
 10
143.32555890784329
 20
-41.876468442134417
 30
0.0
 42
1.0
  0
VERTEX
  5
7971
  8
IV_INTERIOR_PROFILES
 10
145.97555890784329
 20
-41.876468442134417
 30
0.0
 42
1.0
  0
SEQEND
  5
7972
  8
IV_INTERIOR_PROFILES
  0
POLYLINE
  5
648
  8
IV_INTERIOR_PROFILES
 66
     1
 10
0.0
 20
0.0
 30
0.0
 70
   129
  0
VERTEX
  5
7973
  8
IV_INTERIOR_PROFILES
 10
147.75413572434789
 20
-71.343723540305774
 30
0.0
 42
1.0
  0
VERTEX
  5
7974
  8
IV_INTERIOR_PROFILES
 10
152.80413572434799
 20
-71.343723540305774
 30
0.0
 42
1.0
  0
SEQEND
  5
7975
  8
IV_INTERIOR_PROFILES
  0
POLYLINE
  5
649
  8
IV_INTERIOR_PROFILES
 66
     1
 10
0.0
 20
0.0
 30
0.0
 70
   129
  0
VERTEX
  5
7976
  8
IV_INTERIOR_PROFILES
 10
162.09897245646221
 20
-67.591338995969338
 30
0.0
 42
1.0
  0
VERTEX
  5
7977
  8
IV_INTERIOR_PROFILES
 10
177.7489724564623
 20
-67.591338995969338
 30
0.0
 42
1.0
  0
SEQEND
  5
7978
  8
IV_INTERIOR_PROFILES
  0
POLYLINE
  5
64A
  8
IV_INTERIOR_PROFILES
 66
     1
 10
0.0
 20
0.0
 30
0.0
 70
   129
  0
VERTEX
  5
7979
  8
IV_INTERIOR_PROFILES
 10
187.0438091885764
 20
-63.838954451632901
 30
0.0
 42
1.0
  0
VERTEX
  5
797A
  8
IV_INTERIOR_PROFILES
 10
192.09380918857661
 20
-63.838954451632901
 30
0.0
 42
1.0
  0
SEQEND
  5
797B
  8
IV_INTERIOR_PROFILES
  0
POLYLINE
  5
64B
  8
IV_INTERIOR_PROFILES
 66
     1
 10
0.0
 20
0.0
 30
0.0
 70
   129
  0
VERTEX
  5
797C
  8
IV_INTERIOR_PROFILES
 10
191.5065899201611
 20
-38.902151869491291
 30
0.0
 42
1.0
  0
VERTEX
  5
797D
  8
IV_INTERIOR_PROFILES
 10
203.55658992016109
 20
-38.902151869491291
 30
0.0
 42
1.0
  0
SEQEND
  5
797E
  8
IV_INTERIOR_PROFILES
  0
POLYLINE
  5
64C
  8
IV_INTERIOR_PROFILES
 66
     1
 10
0.0
 20
0.0
 30
0.0
 70
   129
  0
VERTEX
  5
797F
  8
IV_INTERIOR_PROFILES
 10
218.76471132830059
 20
-22.039385506471412
 30
0.0
 42
1.0
  0
VERTEX
  5
7980
  8
IV_INTERIOR_PROFILES
 10
223.81471132830049
 20
-22.039385506471412
 30
0.0
 42
1.0
  0
SEQEND
  5
7981
  8
IV_INTERIOR_PROFILES
  0
POLYLINE
  5
64D
  8
IV_INTERIOR_PROFILES
 66
     1
 10
0.0
 20
0.0
 30
0.0
 70
   129
  0
VERTEX
  5
7982
  8
IV_INTERIOR_PROFILES
 10
229.1633129095014
 20
-28.604275986594011
 30
0.0
 42
1.0
  0
VERTEX
  5
7983
  8
IV_INTERIOR_PROFILES
 10
232.21331290950141
 20
-28.604275986594011
 30
0.0
 42
1.0
  0
SEQEND
  5
7984
  8
IV_INTERIOR_PROFILES
  0
POLYLINE
  5
64E
  8
IV_INTERIOR_PROFILES
 66
     1
 10
0.0
 20
0.0
 30
0.0
 70
   129
  0
VERTEX
  5
7985
  8
IV_INTERIOR_PROFILES
 10
223.67586153981159
 20
-45.038404241994371
 30
0.0
 42
1.0
  0
VERTEX
  5
7986
  8
IV_INTERIOR_PROFILES
 10
229.7258615398116
 20
-45.038404241994371
 30
0.0
 42
1.0
  0
SEQEND
  5
7987
  8
IV_INTERIOR_PROFILES
  0
POLYLINE
  5
64F
  8
IV_INTERIOR_PROFILES
 66
     1
 10
0.0
 20
0.0
 30
0.0
 70
   129
  0
VERTEX
  5
7988
  8
IV_INTERIOR_PROFILES
 10
227.58281500749109
 20
-68.204751826939855
 30
0.0
 42
1.0
  0
VERTEX
  5
7989
  8
IV_INTERIOR_PROFILES
 10
232.6328150074911
 20
-68.204751826939855
 30
0.0
 42
1.0
  0
SEQEND
  5
798A
  8
IV_INTERIOR_PROFILES
  0
POLYLINE
  5
650
  8
IV_INTERIOR_PROFILES
 66
     1
 10
0.0
 20
0.0
 30
0.0
 70
   129
  0
VERTEX
  5
798B
  8
IV_INTERIOR_PROFILES
 10
234.9795089532229
 20
-59.05377292137107
 30
0.0
 42
1.0
  0
VERTEX
  5
798C
  8
IV_INTERIOR_PROFILES
 10
238.02950895322289
 20
-59.05377292137107
 30
0.0
 42
1.0
  0
SEQEND
  5
798D
  8
IV_INTERIOR_PROFILES
  0
POLYLINE
  5
651
  8
IV_INTERIOR_PROFILES
 66
     1
 10
0.0
 20
0.0
 30
0.0
 70
   129
  0
VERTEX
  5
798E
  8
IV_INTERIOR_PROFILES
 10
243.9763028634402
 20
-40.816971629615878
 30
0.0
 42
1.0
  0
VERTEX
  5
798F
  8
IV_INTERIOR_PROFILES
 10
253.6263028634402
 20
-40.816971629615878
 30
0.0
 42
1.0
  0
SEQEND
  5
7990
  8
IV_INTERIOR_PROFILES
  0
POLYLINE
  5
652
  8
IV_INTERIOR_PROFILES
 66
     1
 10
0.0
 20
0.0
 30
0.0
 70
   129
  0
VERTEX
  5
7991
  8
IV_INTERIOR_PROFILES
 10
259.61280984427839
 20
-22.788079942872489
 30
0.0
 42
1.0
  0
VERTEX
  5
7992
  8
IV_INTERIOR_PROFILES
 10
262.6628098442784
 20
-22.788079942872489
 30
0.0
 42
1.0
  0
SEQEND
  5
7993
  8
IV_INTERIOR_PROFILES
  0
POLYLINE
  5
653
  8
IV_INTERIOR_PROFILES
 66
     1
 10
0.0
 20
0.0
 30
0.0
 70
   129
  0
VERTEX
  5
7994
  8
IV_INTERIOR_PROFILES
 10
264.93007764876921
 20
-13.2212818272808
 30
0.0
 42
1.0
  0
VERTEX
  5
7995
  8
IV_INTERIOR_PROFILES
 10
269.98007764876911
 20
-13.2212818272808
 30
0.0
 42
1.0
  0
SEQEND
  5
7996
  8
IV_INTERIOR_PROFILES
  0
POLYLINE
  5
654
  8
IV_INTERIOR_PROFILES
 66
     1
 10
0.0
 20
0.0
 30
0.0
 70
   129
  0
VERTEX
  5
7997
  8
IV_INTERIOR_PROFILES
 10
267.8767441870686
 20
-36.595539017237421
 30
0.0
 42
1.0
  0
VERTEX
  5
7998
  8
IV_INTERIOR_PROFILES
 10
273.92674418706861
 20
-36.595539017237421
 30
0.0
 42
1.0
  0
SEQEND
  5
7999
  8
IV_INTERIOR_PROFILES
  0
POLYLINE
  5
655
  8
IV_INTERIOR_PROFILES
 66
     1
 10
0.0
 20
0.0
 30
0.0
 70
   129
  0
VERTEX
  5
799A
  8
IV_INTERIOR_PROFILES
 10
265.42900588800001
 20
-53.237576877649602
 30
0.0
 42
1.0
  0
VERTEX
  5
799B
  8
IV_INTERIOR_PROFILES
 10
268.4790058879999
 20
-53.237576877649602
 30
0.0
 42
1.0
  0
SEQEND
  5
799C
  8
IV_INTERIOR_PROFILES
  0
POLYLINE
  5
656
  8
IV_INTERIOR_PROFILES
 66
     1
 10
0.0
 20
0.0
 30
0.0
 70
   129
  0
VERTEX
  5
799D
  8
IV_INTERIOR_PROFILES
 10
273.74818132795951
 20
-59.38664814774927
 30
0.0
 42
1.0
  0
VERTEX
  5
799E
  8
IV_INTERIOR_PROFILES
 10
278.79818132795958
 20
-59.38664814774927
 30
0.0
 42
1.0
  0
SEQEND
  5
799F
  8
IV_INTERIOR_PROFILES
  0
POLYLINE
  5
657
  8
IV_INTERIOR_PROFILES
 66
     1
 10
0.0
 20
0.0
 30
0.0
 70
   129
  0
VERTEX
  5
79A0
  8
IV_INTERIOR_PROFILES
 10
261.61141558213262
 20
-70.466327742438878
 30
0.0
 42
1.0
  0
VERTEX
  5
79A1
  8
IV_INTERIOR_PROFILES
 10
266.66141558213258
 20
-70.466327742438878
 30
0.0
 42
1.0
  0
SEQEND
  5
79A2
  8
IV_INTERIOR_PROFILES
  0
POLYLINE
  5
658
  8
IV_INTERIOR_PROFILES
 66
     1
 10
0.0
 20
0.0
 30
0.0
 70
   129
  0
VERTEX
  5
79A3
  8
IV_INTERIOR_PROFILES
 10
309.82403876429072
 20
-40.386551049530212
 30
0.0
 42
1.0
  0
VERTEX
  5
79A4
  8
IV_INTERIOR_PROFILES
 10
314.87403876429062
 20
-40.386551049530212
 30
0.0
 42
1.0
  0
SEQEND
  5
79A5
  8
IV_INTERIOR_PROFILES
  0
POLYLINE
  5
659
  8
IV_INTERIOR_PROFILES
 66
     1
 10
0.0
 20
0.0
 30
0.0
 70
   129
  0
VERTEX
  5
79A6
  8
IV_INTERIOR_PROFILES
 10
324.16887549640489
 20
-36.634166505193797
 30
0.0
 42
1.0
  0
VERTEX
  5
79A7
  8
IV_INTERIOR_PROFILES
 10
339.81887549640493
 20
-36.634166505193797
 30
0.0
 42
1.0
  0
SEQEND
  5
79A8
  8
IV_INTERIOR_PROFILES
  0
POLYLINE
  5
65A
  8
IV_INTERIOR_PROFILES
 66
     1
 10
0.0
 20
0.0
 30
0.0
 70
   129
  0
VERTEX
  5
79A9
  8
IV_INTERIOR_PROFILES
 10
349.11371222851909
 20
-32.88178196085741
 30
0.0
 42
1.0
  0
VERTEX
  5
79AA
  8
IV_INTERIOR_PROFILES
 10
354.16371222851888
 20
-32.88178196085741
 30
0.0
 42
1.0
  0
SEQEND
  5
79AB
  8
IV_INTERIOR_PROFILES
  0
ENDBLK
  5
63D
  8
0
  0
BLOCK
  8
0
  2
Y-BACK-PLATE
 70
     0
 10
0.0
 20
0.0
 30
0.0
  3
Y-BACK-PLATE
  1

  0
POLYLINE
  5
686
  8
IV_OUTER_PROFILE
 66
     1
 10
0.0
 20
0.0
 30
0.0
 70
   129
  0
VERTEX
  5
79AC
  8
IV_OUTER_PROFILE
 10
460.44999999999987
 20
-200.44999999999999
 30
0.0
  0
VERTEX
  5
79AD
  8
IV_OUTER_PROFILE
 10
0.0
 20
-200.44999999999999
 30
0.0
  0
VERTEX
  5
79AE
  8
IV_OUTER_PROFILE
 10
0.0
 20
-175.44999999999951
 30
0.0
  0
VERTEX
  5
79AF
  8
IV_OUTER_PROFILE
 10
-6.0
 20
-175.44999999999999
 30
0.0
  0
VERTEX
  5
79B0
  8
IV_OUTER_PROFILE
 10
-6.0
 20
-125.0
 30
0.0
  0
VERTEX
  5
79B1
  8
IV_OUTER_PROFILE
 10
0.0
 20
-125.0
 30
0.0
  0
VERTEX
  5
79B2
  8
IV_OUTER_PROFILE
 10
0.0
 20
-75.450000000000003
 30
0.0
  0
VERTEX
  5
79B3
  8
IV_OUTER_PROFILE
 10
-6.0
 20
-75.449999999999932
 30
0.0
  0
VERTEX
  5
79B4
  8
IV_OUTER_PROFILE
 10
-6.0
 20
-25.0
 30
0.0
  0
VERTEX
  5
79B5
  8
IV_OUTER_PROFILE
 10
0.0
 20
-25.0
 30
0.0
  0
VERTEX
  5
79B6
  8
IV_OUTER_PROFILE
 10
0.0
 20
0.0
 30
0.0
  0
VERTEX
  5
79B7
  8
IV_OUTER_PROFILE
 10
460.44999999999987
 20
0.0
 30
0.0
  0
VERTEX
  5
79B8
  8
IV_OUTER_PROFILE
 10
460.44999999999987
 20
-25.000000000000089
 30
0.0
  0
VERTEX
  5
79B9
  8
IV_OUTER_PROFILE
 10
466.44999999999999
 20
-25.0
 30
0.0
  0
VERTEX
  5
79BA
  8
IV_OUTER_PROFILE
 10
466.44999999999999
 20
-75.449999999999932
 30
0.0
  0
VERTEX
  5
79BB
  8
IV_OUTER_PROFILE
 10
460.44999999999987
 20
-75.449999999999932
 30
0.0
  0
VERTEX
  5
79BC
  8
IV_OUTER_PROFILE
 10
460.44999999999987
 20
-125.0000000000001
 30
0.0
  0
VERTEX
  5
79BD
  8
IV_OUTER_PROFILE
 10
466.44999999999999
 20
-125.0
 30
0.0
  0
VERTEX
  5
79BE
  8
IV_OUTER_PROFILE
 10
466.44999999999999
 20
-175.4499999999999
 30
0.0
  0
VERTEX
  5
79BF
  8
IV_OUTER_PROFILE
 10
460.44999999999982
 20
-175.44999999999999
 30
0.0
  0
SEQEND
  5
79C0
  8
IV_OUTER_PROFILE
  0
POLYLINE
  5
687
  8
IV_INTERIOR_PROFILES
 66
     1
 10
0.0
 20
0.0
 30
0.0
 70
   129
  0
VERTEX
  5
79C1
  8
IV_INTERIOR_PROFILES
 10
53.75
 20
-25.224999999999991
 30
0.0
 42
1.0
  0
VERTEX
  5
79C2
  8
IV_INTERIOR_PROFILES
 10
56.700000000000053
 20
-25.224999999999991
 30
0.0
 42
1.0
  0
SEQEND
  5
79C3
  8
IV_INTERIOR_PROFILES
  0
POLYLINE
  5
688
  8
IV_INTERIOR_PROFILES
 66
     1
 10
0.0
 20
0.0
 30
0.0
 70
   129
  0
VERTEX
  5
79C4
  8
IV_INTERIOR_PROFILES
 10
53.75
 20
-100.2249999999998
 30
0.0
 42
1.0
  0
VERTEX
  5
79C5
  8
IV_INTERIOR_PROFILES
 10
56.700000000000053
 20
-100.2249999999998
 30
0.0
 42
1.0
  0
SEQEND
  5
79C6
  8
IV_INTERIOR_PROFILES
  0
POLYLINE
  5
689
  8
IV_INTERIOR_PROFILES
 66
     1
 10
0.0
 20
0.0
 30
0.0
 70
   129
  0
VERTEX
  5
79C7
  8
IV_INTERIOR_PROFILES
 10
53.75
 20
-175.22499999999991
 30
0.0
 42
1.0
  0
VERTEX
  5
79C8
  8
IV_INTERIOR_PROFILES
 10
56.700000000000053
 20
-175.22499999999991
 30
0.0
 42
1.0
  0
SEQEND
  5
79C9
  8
IV_INTERIOR_PROFILES
  0
POLYLINE
  5
68A
  8
IV_INTERIOR_PROFILES
 66
     1
 10
0.0
 20
0.0
 30
0.0
 70
   129
  0
VERTEX
  5
79CA
  8
IV_INTERIOR_PROFILES
 10
128.75
 20
-175.22499999999991
 30
0.0
 42
1.0
  0
VERTEX
  5
79CB
  8
IV_INTERIOR_PROFILES
 10
131.6999999999999
 20
-175.22499999999991
 30
0.0
 42
1.0
  0
SEQEND
  5
79CC
  8
IV_INTERIOR_PROFILES
  0
POLYLINE
  5
68B
  8
IV_INTERIOR_PROFILES
 66
     1
 10
0.0
 20
0.0
 30
0.0
 70
   129
  0
VERTEX
  5
79CD
  8
IV_INTERIOR_PROFILES
 10
128.75
 20
-100.2249999999998
 30
0.0
 42
1.0
  0
VERTEX
  5
79CE
  8
IV_INTERIOR_PROFILES
 10
131.6999999999999
 20
-100.2249999999998
 30
0.0
 42
1.0
  0
SEQEND
  5
79CF
  8
IV_INTERIOR_PROFILES
  0
POLYLINE
  5
68C
  8
IV_INTERIOR_PROFILES
 66
     1
 10
0.0
 20
0.0
 30
0.0
 70
   129
  0
VERTEX
  5
79D0
  8
IV_INTERIOR_PROFILES
 10
128.75
 20
-25.224999999999991
 30
0.0
 42
1.0
  0
VERTEX
  5
79D1
  8
IV_INTERIOR_PROFILES
 10
131.6999999999999
 20
-25.224999999999991
 30
0.0
 42
1.0
  0
SEQEND
  5
79D2
  8
IV_INTERIOR_PROFILES
  0
POLYLINE
  5
68D
  8
IV_INTERIOR_PROFILES
 66
     1
 10
0.0
 20
0.0
 30
0.0
 70
   129
  0
VERTEX
  5
79D3
  8
IV_INTERIOR_PROFILES
 10
228.75
 20
-25.224999999999991
 30
0.0
 42
1.0
  0
VERTEX
  5
79D4
  8
IV_INTERIOR_PROFILES
 10
231.7000000000001
 20
-25.224999999999991
 30
0.0
 42
1.0
  0
SEQEND
  5
79D5
  8
IV_INTERIOR_PROFILES
  0
POLYLINE
  5
68E
  8
IV_INTERIOR_PROFILES
 66
     1
 10
0.0
 20
0.0
 30
0.0
 70
   129
  0
VERTEX
  5
79D6
  8
IV_INTERIOR_PROFILES
 10
228.75
 20
-100.2249999999998
 30
0.0
 42
1.0
  0
VERTEX
  5
79D7
  8
IV_INTERIOR_PROFILES
 10
231.7000000000001
 20
-100.2249999999998
 30
0.0
 42
1.0
  0
SEQEND
  5
79D8
  8
IV_INTERIOR_PROFILES
  0
POLYLINE
  5
68F
  8
IV_INTERIOR_PROFILES
 66
     1
 10
0.0
 20
0.0
 30
0.0
 70
   129
  0
VERTEX
  5
79D9
  8
IV_INTERIOR_PROFILES
 10
228.75
 20
-175.22499999999991
 30
0.0
 42
1.0
  0
VERTEX
  5
79DA
  8
IV_INTERIOR_PROFILES
 10
231.7000000000001
 20
-175.22499999999991
 30
0.0
 42
1.0
  0
SEQEND
  5
79DB
  8
IV_INTERIOR_PROFILES
  0
POLYLINE
  5
690
  8
IV_INTERIOR_PROFILES
 66
     1
 10
0.0
 20
0.0
 30
0.0
 70
   129
  0
VERTEX
  5
79DC
  8
IV_INTERIOR_PROFILES
 10
328.75
 20
-175.22499999999991
 30
0.0
 42
1.0
  0
VERTEX
  5
79DD
  8
IV_INTERIOR_PROFILES
 10
331.69999999999987
 20
-175.22499999999991
 30
0.0
 42
1.0
  0
SEQEND
  5
79DE
  8
IV_INTERIOR_PROFILES
  0
POLYLINE
  5
691
  8
IV_INTERIOR_PROFILES
 66
     1
 10
0.0
 20
0.0
 30
0.0
 70
   129
  0
VERTEX
  5
79DF
  8
IV_INTERIOR_PROFILES
 10
328.75
 20
-100.2249999999998
 30
0.0
 42
1.0
  0
VERTEX
  5
79E0
  8
IV_INTERIOR_PROFILES
 10
331.69999999999987
 20
-100.2249999999998
 30
0.0
 42
1.0
  0
SEQEND
  5
79E1
  8
IV_INTERIOR_PROFILES
  0
POLYLINE
  5
692
  8
IV_INTERIOR_PROFILES
 66
     1
 10
0.0
 20
0.0
 30
0.0
 70
   129
  0
VERTEX
  5
79E2
  8
IV_INTERIOR_PROFILES
 10
328.75
 20
-25.224999999999991
 30
0.0
 42
1.0
  0
VERTEX
  5
79E3
  8
IV_INTERIOR_PROFILES
 10
331.69999999999987
 20
-25.224999999999991
 30
0.0
 42
1.0
  0
SEQEND
  5
79E4
  8
IV_INTERIOR_PROFILES
  0
POLYLINE
  5
693
  8
IV_INTERIOR_PROFILES
 66
     1
 10
0.0
 20
0.0
 30
0.0
 70
   129
  0
VERTEX
  5
79E5
  8
IV_INTERIOR_PROFILES
 10
403.74999999999989
 20
-25.224999999999991
 30
0.0
 42
1.0
  0
VERTEX
  5
79E6
  8
IV_INTERIOR_PROFILES
 10
406.69999999999987
 20
-25.224999999999991
 30
0.0
 42
1.0
  0
SEQEND
  5
79E7
  8
IV_INTERIOR_PROFILES
  0
POLYLINE
  5
694
  8
IV_INTERIOR_PROFILES
 66
     1
 10
0.0
 20
0.0
 30
0.0
 70
   129
  0
VERTEX
  5
79E8
  8
IV_INTERIOR_PROFILES
 10
403.74999999999989
 20
-100.2249999999998
 30
0.0
 42
1.0
  0
VERTEX
  5
79E9
  8
IV_INTERIOR_PROFILES
 10
406.69999999999987
 20
-100.2249999999998
 30
0.0
 42
1.0
  0
SEQEND
  5
79EA
  8
IV_INTERIOR_PROFILES
  0
POLYLINE
  5
695
  8
IV_INTERIOR_PROFILES
 66
     1
 10
0.0
 20
0.0
 30
0.0
 70
   129
  0
VERTEX
  5
79EB
  8
IV_INTERIOR_PROFILES
 10
403.74999999999989
 20
-175.22499999999991
 30
0.0
 42
1.0
  0
VERTEX
  5
79EC
  8
IV_INTERIOR_PROFILES
 10
406.69999999999987
 20
-175.22499999999991
 30
0.0
 42
1.0
  0
SEQEND
  5
79ED
  8
IV_INTERIOR_PROFILES
  0
ENDBLK
  5
685
  8
0
  0
BLOCK
  8
0
  2
X-PLATE
 70
     0
 10
0.0
 20
0.0
 30
0.0
  3
X-PLATE
  1

  0
POLYLINE
  5
6FA
  8
IV_OUTER_PROFILE
 66
     1
 10
0.0
 20
0.0
 30
0.0
 70
   129
  0
VERTEX
  5
79EE
  8
IV_OUTER_PROFILE
 10
-9.2249999999999073
 20
61.49999999999995
 30
0.0
 42
-0.414213562373095
  0
VERTEX
  5
79EF
  8
IV_OUTER_PROFILE
 10
-3.0
 20
67.724999999999923
 30
0.0
  0
VERTEX
  5
79F0
  8
IV_OUTER_PROFILE
 10
469.0
 20
67.724999999999923
 30
0.0
 42
-0.4142135623730959
  0
VERTEX
  5
79F1
  8
IV_OUTER_PROFILE
 10
475.22500000000002
 20
61.49999999999995
 30
0.0
  0
VERTEX
  5
79F2
  8
IV_OUTER_PROFILE
 10
475.22500000000002
 20
-61.5
 30
0.0
 42
-0.4142135623730974
  0
VERTEX
  5
79F3
  8
IV_OUTER_PROFILE
 10
469.0
 20
-67.725000000000023
 30
0.0
  0
VERTEX
  5
79F4
  8
IV_OUTER_PROFILE
 10
-3.0
 20
-67.725000000000023
 30
0.0
 42
-0.4142135623730951
  0
VERTEX
  5
79F5
  8
IV_OUTER_PROFILE
 10
-9.2249999999999073
 20
-61.500000000000021
 30
0.0
  0
SEQEND
  5
79F6
  8
IV_OUTER_PROFILE
  0
POLYLINE
  5
6FB
  8
IV_INTERIOR_PROFILES
 66
     1
 10
0.0
 20
0.0
 30
0.0
 70
   129
  0
VERTEX
  5
79F7
  8
IV_INTERIOR_PROFILES
 10
468.87499999999989
 20
-42.374999999999901
 30
0.0
  0
VERTEX
  5
79F8
  8
IV_INTERIOR_PROFILES
 10
463.1249999999996
 20
-42.374999999999901
 30
0.0
  0
VERTEX
  5
79F9
  8
IV_INTERIOR_PROFILES
 10
463.1249999999996
 20
-17.62500000000011
 30
0.0
  0
VERTEX
  5
79FA
  8
IV_INTERIOR_PROFILES
 10
468.87499999999989
 20
-17.62500000000011
 30
0.0
  0
SEQEND
  5
79FB
  8
IV_INTERIOR_PROFILES
  0
POLYLINE
  5
6FC
  8
IV_INTERIOR_PROFILES
 66
     1
 10
0.0
 20
0.0
 30
0.0
 70
   129
  0
VERTEX
  5
79FC
  8
IV_INTERIOR_PROFILES
 10
468.87499999999989
 20
17.625000000000071
 30
0.0
  0
VERTEX
  5
79FD
  8
IV_INTERIOR_PROFILES
 10
463.1249999999996
 20
17.625000000000071
 30
0.0
  0
VERTEX
  5
79FE
  8
IV_INTERIOR_PROFILES
 10
463.1249999999996
 20
42.374999999999837
 30
0.0
  0
VERTEX
  5
79FF
  8
IV_INTERIOR_PROFILES
 10
468.87499999999989
 20
42.374999999999837
 30
0.0
  0
SEQEND
  5
7A00
  8
IV_INTERIOR_PROFILES
  0
POLYLINE
  5
6FD
  8
IV_INTERIOR_PROFILES
 66
     1
 10
0.0
 20
0.0
 30
0.0
 70
   129
  0
VERTEX
  5
7A01
  8
IV_INTERIOR_PROFILES
 10
-2.8749999999997722
 20
-17.62500000000011
 30
0.0
  0
VERTEX
  5
7A02
  8
IV_INTERIOR_PROFILES
 10
2.8750000000002269
 20
-17.62500000000011
 30
0.0
  0
VERTEX
  5
7A03
  8
IV_INTERIOR_PROFILES
 10
2.8750000000002269
 20
-42.374999999999901
 30
0.0
  0
VERTEX
  5
7A04
  8
IV_INTERIOR_PROFILES
 10
-2.8749999999997722
 20
-42.374999999999901
 30
0.0
  0
SEQEND
  5
7A05
  8
IV_INTERIOR_PROFILES
  0
POLYLINE
  5
6FE
  8
IV_INTERIOR_PROFILES
 66
     1
 10
0.0
 20
0.0
 30
0.0
 70
   129
  0
VERTEX
  5
7A06
  8
IV_INTERIOR_PROFILES
 10
-2.8749999999997722
 20
42.374999999999837
 30
0.0
  0
VERTEX
  5
7A07
  8
IV_INTERIOR_PROFILES
 10
2.8750000000002269
 20
42.374999999999837
 30
0.0
  0
VERTEX
  5
7A08
  8
IV_INTERIOR_PROFILES
 10
2.8750000000002269
 20
17.625000000000071
 30
0.0
  0
VERTEX
  5
7A09
  8
IV_INTERIOR_PROFILES
 10
-2.8749999999997722
 20
17.625000000000071
 30
0.0
  0
SEQEND
  5
7A0A
  8
IV_INTERIOR_PROFILES
  0
POLYLINE
  5
6FF
  8
IV_INTERIOR_PROFILES
 66
     1
 10
0.0
 20
0.0
 30
0.0
 70
   129
  0
VERTEX
  5
7A0B
  8
IV_INTERIOR_PROFILES
 10
-2.875
 20
-0.0000000000000142
 30
0.0
 42
1.0
  0
VERTEX
  5
7A0C
  8
IV_INTERIOR_PROFILES
 10
2.875
 20
-0.0000000000000142
 30
0.0
 42
1.0
  0
SEQEND
  5
7A0D
  8
IV_INTERIOR_PROFILES
  0
POLYLINE
  5
700
  8
IV_INTERIOR_PROFILES
 66
     1
 10
0.0
 20
0.0
 30
0.0
 70
   129
  0
VERTEX
  5
7A0E
  8
IV_INTERIOR_PROFILES
 10
9.9750000000001364
 20
54.999999999999929
 30
0.0
 42
1.0
  0
VERTEX
  5
7A0F
  8
IV_INTERIOR_PROFILES
 10
15.025000000000089
 20
54.999999999999929
 30
0.0
 42
1.0
  0
SEQEND
  5
7A10
  8
IV_INTERIOR_PROFILES
  0
POLYLINE
  5
701
  8
IV_INTERIOR_PROFILES
 66
     1
 10
0.0
 20
0.0
 30
0.0
 70
   129
  0
VERTEX
  5
7A11
  8
IV_INTERIOR_PROFILES
 10
9.9750000000001364
 20
25.0
 30
0.0
 42
1.0
  0
VERTEX
  5
7A12
  8
IV_INTERIOR_PROFILES
 10
15.025000000000089
 20
25.0
 30
0.0
 42
1.0
  0
SEQEND
  5
7A13
  8
IV_INTERIOR_PROFILES
  0
POLYLINE
  5
702
  8
IV_INTERIOR_PROFILES
 66
     1
 10
0.0
 20
0.0
 30
0.0
 70
   129
  0
VERTEX
  5
7A14
  8
IV_INTERIOR_PROFILES
 10
9.9750000000001364
 20
-25.000000000000021
 30
0.0
 42
1.0
  0
VERTEX
  5
7A15
  8
IV_INTERIOR_PROFILES
 10
15.025000000000089
 20
-25.000000000000021
 30
0.0
 42
1.0
  0
SEQEND
  5
7A16
  8
IV_INTERIOR_PROFILES
  0
POLYLINE
  5
703
  8
IV_INTERIOR_PROFILES
 66
     1
 10
0.0
 20
0.0
 30
0.0
 70
   129
  0
VERTEX
  5
7A17
  8
IV_INTERIOR_PROFILES
 10
9.9750000000001364
 20
-55.0
 30
0.0
 42
1.0
  0
VERTEX
  5
7A18
  8
IV_INTERIOR_PROFILES
 10
15.025000000000089
 20
-55.0
 30
0.0
 42
1.0
  0
SEQEND
  5
7A19
  8
IV_INTERIOR_PROFILES
  0
POLYLINE
  5
704
  8
IV_INTERIOR_PROFILES
 66
     1
 10
0.0
 20
0.0
 30
0.0
 70
   129
  0
VERTEX
  5
7A1A
  8
IV_INTERIOR_PROFILES
 10
41.975000000000129
 20
-55.0
 30
0.0
 42
1.0
  0
VERTEX
  5
7A1B
  8
IV_INTERIOR_PROFILES
 10
47.025000000000098
 20
-55.0
 30
0.0
 42
1.0
  0
SEQEND
  5
7A1C
  8
IV_INTERIOR_PROFILES
  0
POLYLINE
  5
705
  8
IV_INTERIOR_PROFILES
 66
     1
 10
0.0
 20
0.0
 30
0.0
 70
   129
  0
VERTEX
  5
7A1D
  8
IV_INTERIOR_PROFILES
 10
41.975000000000129
 20
-25.000000000000021
 30
0.0
 42
1.0
  0
VERTEX
  5
7A1E
  8
IV_INTERIOR_PROFILES
 10
47.025000000000098
 20
-25.000000000000021
 30
0.0
 42
1.0
  0
SEQEND
  5
7A1F
  8
IV_INTERIOR_PROFILES
  0
POLYLINE
  5
706
  8
IV_INTERIOR_PROFILES
 66
     1
 10
0.0
 20
0.0
 30
0.0
 70
   129
  0
VERTEX
  5
7A20
  8
IV_INTERIOR_PROFILES
 10
41.975000000000129
 20
25.0
 30
0.0
 42
1.0
  0
VERTEX
  5
7A21
  8
IV_INTERIOR_PROFILES
 10
47.025000000000098
 20
25.0
 30
0.0
 42
1.0
  0
SEQEND
  5
7A22
  8
IV_INTERIOR_PROFILES
  0
POLYLINE
  5
707
  8
IV_INTERIOR_PROFILES
 66
     1
 10
0.0
 20
0.0
 30
0.0
 70
   129
  0
VERTEX
  5
7A23
  8
IV_INTERIOR_PROFILES
 10
41.975000000000129
 20
54.999999999999929
 30
0.0
 42
1.0
  0
VERTEX
  5
7A24
  8
IV_INTERIOR_PROFILES
 10
47.025000000000098
 20
54.999999999999929
 30
0.0
 42
1.0
  0
SEQEND
  5
7A25
  8
IV_INTERIOR_PROFILES
  0
POLYLINE
  5
708
  8
IV_INTERIOR_PROFILES
 66
     1
 10
0.0
 20
0.0
 30
0.0
 70
   129
  0
VERTEX
  5
7A26
  8
IV_INTERIOR_PROFILES
 10
69.975000000000136
 20
54.999999999999929
 30
0.0
 42
1.0
  0
VERTEX
  5
7A27
  8
IV_INTERIOR_PROFILES
 10
75.025000000000091
 20
54.999999999999929
 30
0.0
 42
1.0
  0
SEQEND
  5
7A28
  8
IV_INTERIOR_PROFILES
  0
POLYLINE
  5
709
  8
IV_INTERIOR_PROFILES
 66
     1
 10
0.0
 20
0.0
 30
0.0
 70
   129
  0
VERTEX
  5
7A29
  8
IV_INTERIOR_PROFILES
 10
101.9749999999998
 20
54.999999999999929
 30
0.0
 42
1.0
  0
VERTEX
  5
7A2A
  8
IV_INTERIOR_PROFILES
 10
107.02500000000011
 20
54.999999999999929
 30
0.0
 42
1.0
  0
SEQEND
  5
7A2B
  8
IV_INTERIOR_PROFILES
  0
POLYLINE
  5
70A
  8
IV_INTERIOR_PROFILES
 66
     1
 10
0.0
 20
0.0
 30
0.0
 70
   129
  0
VERTEX
  5
7A2C
  8
IV_INTERIOR_PROFILES
 10
101.9749999999998
 20
25.0
 30
0.0
 42
1.0
  0
VERTEX
  5
7A2D
  8
IV_INTERIOR_PROFILES
 10
107.02500000000011
 20
25.0
 30
0.0
 42
1.0
  0
SEQEND
  5
7A2E
  8
IV_INTERIOR_PROFILES
  0
POLYLINE
  5
70B
  8
IV_INTERIOR_PROFILES
 66
     1
 10
0.0
 20
0.0
 30
0.0
 70
   129
  0
VERTEX
  5
7A2F
  8
IV_INTERIOR_PROFILES
 10
69.975000000000136
 20
25.0
 30
0.0
 42
1.0
  0
VERTEX
  5
7A30
  8
IV_INTERIOR_PROFILES
 10
75.025000000000091
 20
25.0
 30
0.0
 42
1.0
  0
SEQEND
  5
7A31
  8
IV_INTERIOR_PROFILES
  0
POLYLINE
  5
70C
  8
IV_INTERIOR_PROFILES
 66
     1
 10
0.0
 20
0.0
 30
0.0
 70
   129
  0
VERTEX
  5
7A32
  8
IV_INTERIOR_PROFILES
 10
69.975000000000136
 20
-25.000000000000021
 30
0.0
 42
1.0
  0
VERTEX
  5
7A33
  8
IV_INTERIOR_PROFILES
 10
75.025000000000091
 20
-25.000000000000021
 30
0.0
 42
1.0
  0
SEQEND
  5
7A34
  8
IV_INTERIOR_PROFILES
  0
POLYLINE
  5
70D
  8
IV_INTERIOR_PROFILES
 66
     1
 10
0.0
 20
0.0
 30
0.0
 70
   129
  0
VERTEX
  5
7A35
  8
IV_INTERIOR_PROFILES
 10
101.9749999999998
 20
-25.000000000000021
 30
0.0
 42
1.0
  0
VERTEX
  5
7A36
  8
IV_INTERIOR_PROFILES
 10
107.02500000000011
 20
-25.000000000000021
 30
0.0
 42
1.0
  0
SEQEND
  5
7A37
  8
IV_INTERIOR_PROFILES
  0
POLYLINE
  5
70E
  8
IV_INTERIOR_PROFILES
 66
     1
 10
0.0
 20
0.0
 30
0.0
 70
   129
  0
VERTEX
  5
7A38
  8
IV_INTERIOR_PROFILES
 10
69.975000000000136
 20
-55.0
 30
0.0
 42
1.0
  0
VERTEX
  5
7A39
  8
IV_INTERIOR_PROFILES
 10
75.025000000000091
 20
-55.0
 30
0.0
 42
1.0
  0
SEQEND
  5
7A3A
  8
IV_INTERIOR_PROFILES
  0
POLYLINE
  5
70F
  8
IV_INTERIOR_PROFILES
 66
     1
 10
0.0
 20
0.0
 30
0.0
 70
   129
  0
VERTEX
  5
7A3B
  8
IV_INTERIOR_PROFILES
 10
101.9749999999998
 20
-55.0
 30
0.0
 42
1.0
  0
VERTEX
  5
7A3C
  8
IV_INTERIOR_PROFILES
 10
107.02500000000011
 20
-55.0
 30
0.0
 42
1.0
  0
SEQEND
  5
7A3D
  8
IV_INTERIOR_PROFILES
  0
POLYLINE
  5
710
  8
IV_INTERIOR_PROFILES
 66
     1
 10
0.0
 20
0.0
 30
0.0
 70
   129
  0
VERTEX
  5
7A3E
  8
IV_INTERIOR_PROFILES
 10
185.72499999999999
 20
-40.0
 30
0.0
 42
1.0
  0
VERTEX
  5
7A3F
  8
IV_INTERIOR_PROFILES
 10
190.77500000000001
 20
-40.0
 30
0.0
 42
1.0
  0
SEQEND
  5
7A40
  8
IV_INTERIOR_PROFILES
  0
POLYLINE
  5
711
  8
IV_INTERIOR_PROFILES
 66
     1
 10
0.0
 20
0.0
 30
0.0
 70
   129
  0
VERTEX
  5
7A41
  8
IV_INTERIOR_PROFILES
 10
185.72499999999999
 20
39.99999999999995
 30
0.0
 42
1.0
  0
VERTEX
  5
7A42
  8
IV_INTERIOR_PROFILES
 10
190.77500000000001
 20
39.99999999999995
 30
0.0
 42
1.0
  0
SEQEND
  5
7A43
  8
IV_INTERIOR_PROFILES
  0
POLYLINE
  5
712
  8
IV_INTERIOR_PROFILES
 66
     1
 10
0.0
 20
0.0
 30
0.0
 70
   129
  0
VERTEX
  5
7A44
  8
IV_INTERIOR_PROFILES
 10
220.47500000000011
 20
-9.5
 30
0.0
 42
1.0
  0
VERTEX
  5
7A45
  8
IV_INTERIOR_PROFILES
 10
225.52500000000009
 20
-9.5
 30
0.0
 42
1.0
  0
SEQEND
  5
7A46
  8
IV_INTERIOR_PROFILES
  0
POLYLINE
  5
713
  8
IV_INTERIOR_PROFILES
 66
     1
 10
0.0
 20
0.0
 30
0.0
 70
   129
  0
VERTEX
  5
7A47
  8
IV_INTERIOR_PROFILES
 10
240.47499999999991
 20
-9.5
 30
0.0
 42
1.0
  0
VERTEX
  5
7A48
  8
IV_INTERIOR_PROFILES
 10
245.52500000000009
 20
-9.5
 30
0.0
 42
1.0
  0
SEQEND
  5
7A49
  8
IV_INTERIOR_PROFILES
  0
POLYLINE
  5
714
  8
IV_INTERIOR_PROFILES
 66
     1
 10
0.0
 20
0.0
 30
0.0
 70
   129
  0
VERTEX
  5
7A4A
  8
IV_INTERIOR_PROFILES
 10
275.22500000000008
 20
39.99999999999995
 30
0.0
 42
1.0
  0
VERTEX
  5
7A4B
  8
IV_INTERIOR_PROFILES
 10
280.27500000000009
 20
39.99999999999995
 30
0.0
 42
1.0
  0
SEQEND
  5
7A4C
  8
IV_INTERIOR_PROFILES
  0
POLYLINE
  5
715
  8
IV_INTERIOR_PROFILES
 66
     1
 10
0.0
 20
0.0
 30
0.0
 70
   129
  0
VERTEX
  5
7A4D
  8
IV_INTERIOR_PROFILES
 10
275.22500000000008
 20
-40.0
 30
0.0
 42
1.0
  0
VERTEX
  5
7A4E
  8
IV_INTERIOR_PROFILES
 10
280.27500000000009
 20
-40.0
 30
0.0
 42
1.0
  0
SEQEND
  5
7A4F
  8
IV_INTERIOR_PROFILES
  0
POLYLINE
  5
716
  8
IV_INTERIOR_PROFILES
 66
     1
 10
0.0
 20
0.0
 30
0.0
 70
   129
  0
VERTEX
  5
7A50
  8
IV_INTERIOR_PROFILES
 10
358.97500000000008
 20
54.999999999999929
 30
0.0
 42
1.0
  0
VERTEX
  5
7A51
  8
IV_INTERIOR_PROFILES
 10
364.02500000000009
 20
54.999999999999929
 30
0.0
 42
1.0
  0
SEQEND
  5
7A52
  8
IV_INTERIOR_PROFILES
  0
POLYLINE
  5
717
  8
IV_INTERIOR_PROFILES
 66
     1
 10
0.0
 20
0.0
 30
0.0
 70
   129
  0
VERTEX
  5
7A53
  8
IV_INTERIOR_PROFILES
 10
358.97500000000008
 20
25.0
 30
0.0
 42
1.0
  0
VERTEX
  5
7A54
  8
IV_INTERIOR_PROFILES
 10
364.02500000000009
 20
25.0
 30
0.0
 42
1.0
  0
SEQEND
  5
7A55
  8
IV_INTERIOR_PROFILES
  0
POLYLINE
  5
718
  8
IV_INTERIOR_PROFILES
 66
     1
 10
0.0
 20
0.0
 30
0.0
 70
   129
  0
VERTEX
  5
7A56
  8
IV_INTERIOR_PROFILES
 10
390.97500000000019
 20
54.999999999999929
 30
0.0
 42
1.0
  0
VERTEX
  5
7A57
  8
IV_INTERIOR_PROFILES
 10
396.02500000000009
 20
54.999999999999929
 30
0.0
 42
1.0
  0
SEQEND
  5
7A58
  8
IV_INTERIOR_PROFILES
  0
POLYLINE
  5
719
  8
IV_INTERIOR_PROFILES
 66
     1
 10
0.0
 20
0.0
 30
0.0
 70
   129
  0
VERTEX
  5
7A59
  8
IV_INTERIOR_PROFILES
 10
390.97500000000019
 20
25.0
 30
0.0
 42
1.0
  0
VERTEX
  5
7A5A
  8
IV_INTERIOR_PROFILES
 10
396.02500000000009
 20
25.0
 30
0.0
 42
1.0
  0
SEQEND
  5
7A5B
  8
IV_INTERIOR_PROFILES
  0
POLYLINE
  5
71A
  8
IV_INTERIOR_PROFILES
 66
     1
 10
0.0
 20
0.0
 30
0.0
 70
   129
  0
VERTEX
  5
7A5C
  8
IV_INTERIOR_PROFILES
 10
358.97500000000008
 20
-25.000000000000021
 30
0.0
 42
1.0
  0
VERTEX
  5
7A5D
  8
IV_INTERIOR_PROFILES
 10
364.02500000000009
 20
-25.000000000000021
 30
0.0
 42
1.0
  0
SEQEND
  5
7A5E
  8
IV_INTERIOR_PROFILES
  0
POLYLINE
  5
71B
  8
IV_INTERIOR_PROFILES
 66
     1
 10
0.0
 20
0.0
 30
0.0
 70
   129
  0
VERTEX
  5
7A5F
  8
IV_INTERIOR_PROFILES
 10
390.97500000000019
 20
-25.000000000000021
 30
0.0
 42
1.0
  0
VERTEX
  5
7A60
  8
IV_INTERIOR_PROFILES
 10
396.02500000000009
 20
-25.000000000000021
 30
0.0
 42
1.0
  0
SEQEND
  5
7A61
  8
IV_INTERIOR_PROFILES
  0
POLYLINE
  5
71C
  8
IV_INTERIOR_PROFILES
 66
     1
 10
0.0
 20
0.0
 30
0.0
 70
   129
  0
VERTEX
  5
7A62
  8
IV_INTERIOR_PROFILES
 10
390.97500000000019
 20
-55.0
 30
0.0
 42
1.0
  0
VERTEX
  5
7A63
  8
IV_INTERIOR_PROFILES
 10
396.02500000000009
 20
-55.0
 30
0.0
 42
1.0
  0
SEQEND
  5
7A64
  8
IV_INTERIOR_PROFILES
  0
POLYLINE
  5
71D
  8
IV_INTERIOR_PROFILES
 66
     1
 10
0.0
 20
0.0
 30
0.0
 70
   129
  0
VERTEX
  5
7A65
  8
IV_INTERIOR_PROFILES
 10
358.97500000000008
 20
-55.0
 30
0.0
 42
1.0
  0
VERTEX
  5
7A66
  8
IV_INTERIOR_PROFILES
 10
364.02500000000009
 20
-55.0
 30
0.0
 42
1.0
  0
SEQEND
  5
7A67
  8
IV_INTERIOR_PROFILES
  0
POLYLINE
  5
71E
  8
IV_INTERIOR_PROFILES
 66
     1
 10
0.0
 20
0.0
 30
0.0
 70
   129
  0
VERTEX
  5
7A68
  8
IV_INTERIOR_PROFILES
 10
418.97500000000002
 20
54.999999999999929
 30
0.0
 42
1.0
  0
VERTEX
  5
7A69
  8
IV_INTERIOR_PROFILES
 10
424.02500000000009
 20
54.999999999999929
 30
0.0
 42
1.0
  0
SEQEND
  5
7A6A
  8
IV_INTERIOR_PROFILES
  0
POLYLINE
  5
71F
  8
IV_INTERIOR_PROFILES
 66
     1
 10
0.0
 20
0.0
 30
0.0
 70
   129
  0
VERTEX
  5
7A6B
  8
IV_INTERIOR_PROFILES
 10
450.97500000000008
 20
54.999999999999929
 30
0.0
 42
1.0
  0
VERTEX
  5
7A6C
  8
IV_INTERIOR_PROFILES
 10
456.02499999999992
 20
54.999999999999929
 30
0.0
 42
1.0
  0
SEQEND
  5
7A6D
  8
IV_INTERIOR_PROFILES
  0
POLYLINE
  5
720
  8
IV_INTERIOR_PROFILES
 66
     1
 10
0.0
 20
0.0
 30
0.0
 70
   129
  0
VERTEX
  5
7A6E
  8
IV_INTERIOR_PROFILES
 10
418.97500000000002
 20
25.0
 30
0.0
 42
1.0
  0
VERTEX
  5
7A6F
  8
IV_INTERIOR_PROFILES
 10
424.02500000000009
 20
25.0
 30
0.0
 42
1.0
  0
SEQEND
  5
7A70
  8
IV_INTERIOR_PROFILES
  0
POLYLINE
  5
721
  8
IV_INTERIOR_PROFILES
 66
     1
 10
0.0
 20
0.0
 30
0.0
 70
   129
  0
VERTEX
  5
7A71
  8
IV_INTERIOR_PROFILES
 10
450.97500000000008
 20
25.0
 30
0.0
 42
1.0
  0
VERTEX
  5
7A72
  8
IV_INTERIOR_PROFILES
 10
456.02499999999992
 20
25.0
 30
0.0
 42
1.0
  0
SEQEND
  5
7A73
  8
IV_INTERIOR_PROFILES
  0
POLYLINE
  5
722
  8
IV_INTERIOR_PROFILES
 66
     1
 10
0.0
 20
0.0
 30
0.0
 70
   129
  0
VERTEX
  5
7A74
  8
IV_INTERIOR_PROFILES
 10
418.97500000000002
 20
-25.000000000000021
 30
0.0
 42
1.0
  0
VERTEX
  5
7A75
  8
IV_INTERIOR_PROFILES
 10
424.02500000000009
 20
-25.000000000000021
 30
0.0
 42
1.0
  0
SEQEND
  5
7A76
  8
IV_INTERIOR_PROFILES
  0
POLYLINE
  5
723
  8
IV_INTERIOR_PROFILES
 66
     1
 10
0.0
 20
0.0
 30
0.0
 70
   129
  0
VERTEX
  5
7A77
  8
IV_INTERIOR_PROFILES
 10
450.97500000000008
 20
-25.000000000000021
 30
0.0
 42
1.0
  0
VERTEX
  5
7A78
  8
IV_INTERIOR_PROFILES
 10
456.02499999999992
 20
-25.000000000000021
 30
0.0
 42
1.0
  0
SEQEND
  5
7A79
  8
IV_INTERIOR_PROFILES
  0
POLYLINE
  5
724
  8
IV_INTERIOR_PROFILES
 66
     1
 10
0.0
 20
0.0
 30
0.0
 70
   129
  0
VERTEX
  5
7A7A
  8
IV_INTERIOR_PROFILES
 10
418.97500000000002
 20
-55.0
 30
0.0
 42
1.0
  0
VERTEX
  5
7A7B
  8
IV_INTERIOR_PROFILES
 10
424.02500000000009
 20
-55.0
 30
0.0
 42
1.0
  0
SEQEND
  5
7A7C
  8
IV_INTERIOR_PROFILES
  0
POLYLINE
  5
725
  8
IV_INTERIOR_PROFILES
 66
     1
 10
0.0
 20
0.0
 30
0.0
 70
   129
  0
VERTEX
  5
7A7D
  8
IV_INTERIOR_PROFILES
 10
450.97500000000008
 20
-55.0
 30
0.0
 42
1.0
  0
VERTEX
  5
7A7E
  8
IV_INTERIOR_PROFILES
 10
456.02499999999992
 20
-55.0
 30
0.0
 42
1.0
  0
SEQEND
  5
7A7F
  8
IV_INTERIOR_PROFILES
  0
POLYLINE
  5
726
  8
IV_INTERIOR_PROFILES
 66
     1
 10
0.0
 20
0.0
 30
0.0
 70
   129
  0
VERTEX
  5
7A80
  8
IV_INTERIOR_PROFILES
 10
463.125
 20
-0.0000000000000142
 30
0.0
 42
1.0
  0
VERTEX
  5
7A81
  8
IV_INTERIOR_PROFILES
 10
468.87499999999989
 20
-0.0000000000000142
 30
0.0
 42
1.0
  0
SEQEND
  5
7A82
  8
IV_INTERIOR_PROFILES
  0
ENDBLK
  5
6F9
  8
0
  0
BLOCK
  8
0
  2
X-SIDE-PLATE
 70
     0
 10
0.0
 20
0.0
 30
0.0
  3
X-SIDE-PLATE
  1

  0
POLYLINE
  5
760
  8
IV_OUTER_PROFILE
 66
     1
 10
0.0
 20
0.0
 30
0.0
 70
   129
  0
VERTEX
  5
7A83
  8
IV_OUTER_PROFILE
 10
-5.9999999999998863
 20
-57.950000000000053
 30
0.0
  0
VERTEX
  5
7A84
  8
IV_OUTER_PROFILE
 10
-5.9999999999998863
 20
-22.50000000000006
 30
0.0
  0
VERTEX
  5
7A85
  8
IV_OUTER_PROFILE
 10
0.0
 20
-22.50000000000006
 30
0.0
  0
VERTEX
  5
7A86
  8
IV_OUTER_PROFILE
 10
0.0
 20
-0.0000000000000568
 30
0.0
  0
VERTEX
  5
7A87
  8
IV_OUTER_PROFILE
 10
588.00000000000011
 20
-0.0000000000000568
 30
0.0
  0
VERTEX
  5
7A88
  8
IV_OUTER_PROFILE
 10
588.00000000000011
 20
-22.50000000000006
 30
0.0
  0
VERTEX
  5
7A89
  8
IV_OUTER_PROFILE
 10
594.00000000000011
 20
-22.50000000000006
 30
0.0
  0
VERTEX
  5
7A8A
  8
IV_OUTER_PROFILE
 10
594.00000000000011
 20
-57.950000000000053
 30
0.0
  0
VERTEX
  5
7A8B
  8
IV_OUTER_PROFILE
 10
588.00000000000011
 20
-57.950000000000053
 30
0.0
  0
VERTEX
  5
7A8C
  8
IV_OUTER_PROFILE
 10
588.00000000000011
 20
-80.450000000000031
 30
0.0
  0
VERTEX
  5
7A8D
  8
IV_OUTER_PROFILE
 10
0.0
 20
-80.450000000000031
 30
0.0
  0
VERTEX
  5
7A8E
  8
IV_OUTER_PROFILE
 10
0.0
 20
-57.949999999999989
 30
0.0
  0
SEQEND
  5
7A8F
  8
IV_OUTER_PROFILE
  0
POLYLINE
  5
761
  8
IV_INTERIOR_PROFILES
 66
     1
 10
0.0
 20
0.0
 30
0.0
 70
   129
  0
VERTEX
  5
7A90
  8
IV_INTERIOR_PROFILES
 10
318.875
 20
-68.350000000000136
 30
0.0
  0
VERTEX
  5
7A91
  8
IV_INTERIOR_PROFILES
 10
318.875
 20
-74.100000000000421
 30
0.0
  0
VERTEX
  5
7A92
  8
IV_INTERIOR_PROFILES
 10
269.12500000000028
 20
-74.100000000000421
 30
0.0
  0
VERTEX
  5
7A93
  8
IV_INTERIOR_PROFILES
 10
269.12500000000028
 20
-68.350000000000136
 30
0.0
  0
SEQEND
  5
7A94
  8
IV_INTERIOR_PROFILES
  0
POLYLINE
  5
762
  8
IV_INTERIOR_PROFILES
 66
     1
 10
0.0
 20
0.0
 30
0.0
 70
   129
  0
VERTEX
  5
7A95
  8
IV_INTERIOR_PROFILES
 10
487.77499999999981
 20
-68.350000000000136
 30
0.0
  0
VERTEX
  5
7A96
  8
IV_INTERIOR_PROFILES
 10
487.77499999999981
 20
-74.100000000000421
 30
0.0
  0
VERTEX
  5
7A97
  8
IV_INTERIOR_PROFILES
 10
438.02500000000009
 20
-74.100000000000421
 30
0.0
  0
VERTEX
  5
7A98
  8
IV_INTERIOR_PROFILES
 10
438.02500000000009
 20
-68.350000000000136
 30
0.0
  0
SEQEND
  5
7A99
  8
IV_INTERIOR_PROFILES
  0
POLYLINE
  5
763
  8
IV_INTERIOR_PROFILES
 66
     1
 10
0.0
 20
0.0
 30
0.0
 70
   129
  0
VERTEX
  5
7A9A
  8
IV_INTERIOR_PROFILES
 10
149.97500000000011
 20
-68.350000000000136
 30
0.0
  0
VERTEX
  5
7A9B
  8
IV_INTERIOR_PROFILES
 10
149.97500000000011
 20
-74.100000000000421
 30
0.0
  0
VERTEX
  5
7A9C
  8
IV_INTERIOR_PROFILES
 10
100.2249999999998
 20
-74.100000000000421
 30
0.0
  0
VERTEX
  5
7A9D
  8
IV_INTERIOR_PROFILES
 10
100.2249999999998
 20
-68.350000000000136
 30
0.0
  0
SEQEND
  5
7A9E
  8
IV_INTERIOR_PROFILES
  0
POLYLINE
  5
764
  8
IV_INTERIOR_PROFILES
 66
     1
 10
0.0
 20
0.0
 30
0.0
 70
   129
  0
VERTEX
  5
7A9F
  8
IV_INTERIOR_PROFILES
 10
410.9500000000001
 20
-55.000000000000071
 30
0.0
  0
VERTEX
  5
7AA0
  8
IV_INTERIOR_PROFILES
 10
345.95000000000022
 20
-55.000000000000071
 30
0.0
 42
-1.0
  0
VERTEX
  5
7AA1
  8
IV_INTERIOR_PROFILES
 10
345.95000000000022
 20
-35.450000000000053
 30
0.0
  0
VERTEX
  5
7AA2
  8
IV_INTERIOR_PROFILES
 10
410.9500000000001
 20
-35.450000000000053
 30
0.0
 42
-1.0
  0
SEQEND
  5
7AA3
  8
IV_INTERIOR_PROFILES
  0
POLYLINE
  5
765
  8
IV_INTERIOR_PROFILES
 66
     1
 10
0.0
 20
0.0
 30
0.0
 70
   129
  0
VERTEX
  5
7AA4
  8
IV_INTERIOR_PROFILES
 10
177.0499999999999
 20
-35.450000000000053
 30
0.0
  0
VERTEX
  5
7AA5
  8
IV_INTERIOR_PROFILES
 10
242.05000000000001
 20
-35.450000000000053
 30
0.0
 42
-1.0
  0
VERTEX
  5
7AA6
  8
IV_INTERIOR_PROFILES
 10
242.05000000000001
 20
-55.000000000000071
 30
0.0
  0
VERTEX
  5
7AA7
  8
IV_INTERIOR_PROFILES
 10
177.0499999999999
 20
-55.000000000000071
 30
0.0
 42
-1.0
  0
SEQEND
  5
7AA8
  8
IV_INTERIOR_PROFILES
  0
POLYLINE
  5
766
  8
IV_INTERIOR_PROFILES
 66
     1
 10
0.0
 20
0.0
 30
0.0
 70
   129
  0
VERTEX
  5
7AA9
  8
IV_INTERIOR_PROFILES
 10
47.525000000000112
 20
-10.22500000000008
 30
0.0
 42
1.0
  0
VERTEX
  5
7AAA
  8
IV_INTERIOR_PROFILES
 10
50.475000000000129
 20
-10.22500000000008
 30
0.0
 42
1.0
  0
SEQEND
  5
7AAB
  8
IV_INTERIOR_PROFILES
  0
POLYLINE
  5
767
  8
IV_INTERIOR_PROFILES
 66
     1
 10
0.0
 20
0.0
 30
0.0
 70
   129
  0
VERTEX
  5
7AAC
  8
IV_INTERIOR_PROFILES
 10
72.575000000000159
 20
-71.22500000000008
 30
0.0
 42
1.0
  0
VERTEX
  5
7AAD
  8
IV_INTERIOR_PROFILES
 10
77.625000000000199
 20
-71.22500000000008
 30
0.0
 42
1.0
  0
SEQEND
  5
7AAE
  8
IV_INTERIOR_PROFILES
  0
POLYLINE
  5
768
  8
IV_INTERIOR_PROFILES
 66
     1
 10
0.0
 20
0.0
 30
0.0
 70
   129
  0
VERTEX
  5
7AAF
  8
IV_INTERIOR_PROFILES
 10
96.525000000000105
 20
-10.22500000000008
 30
0.0
 42
1.0
  0
VERTEX
  5
7AB0
  8
IV_INTERIOR_PROFILES
 10
99.475000000000136
 20
-10.22500000000008
 30
0.0
 42
1.0
  0
SEQEND
  5
7AB1
  8
IV_INTERIOR_PROFILES
  0
POLYLINE
  5
769
  8
IV_INTERIOR_PROFILES
 66
     1
 10
0.0
 20
0.0
 30
0.0
 70
   129
  0
VERTEX
  5
7AB2
  8
IV_INTERIOR_PROFILES
 10
145.52500000000009
 20
-10.22500000000008
 30
0.0
 42
1.0
  0
VERTEX
  5
7AB3
  8
IV_INTERIOR_PROFILES
 10
148.47499999999999
 20
-10.22500000000008
 30
0.0
 42
1.0
  0
SEQEND
  5
7AB4
  8
IV_INTERIOR_PROFILES
  0
POLYLINE
  5
76A
  8
IV_INTERIOR_PROFILES
 66
     1
 10
0.0
 20
0.0
 30
0.0
 70
   129
  0
VERTEX
  5
7AB5
  8
IV_INTERIOR_PROFILES
 10
172.57499999999999
 20
-71.22500000000008
 30
0.0
 42
1.0
  0
VERTEX
  5
7AB6
  8
IV_INTERIOR_PROFILES
 10
177.625
 20
-71.22500000000008
 30
0.0
 42
1.0
  0
SEQEND
  5
7AB7
  8
IV_INTERIOR_PROFILES
  0
POLYLINE
  5
76B
  8
IV_INTERIOR_PROFILES
 66
     1
 10
0.0
 20
0.0
 30
0.0
 70
   129
  0
VERTEX
  5
7AB8
  8
IV_INTERIOR_PROFILES
 10
194.52500000000001
 20
-10.22500000000008
 30
0.0
 42
1.0
  0
VERTEX
  5
7AB9
  8
IV_INTERIOR_PROFILES
 10
197.47499999999999
 20
-10.22500000000008
 30
0.0
 42
1.0
  0
SEQEND
  5
7ABA
  8
IV_INTERIOR_PROFILES
  0
POLYLINE
  5
76C
  8
IV_INTERIOR_PROFILES
 66
     1
 10
0.0
 20
0.0
 30
0.0
 70
   129
  0
VERTEX
  5
7ABB
  8
IV_INTERIOR_PROFILES
 10
243.52500000000009
 20
-10.22500000000008
 30
0.0
 42
1.0
  0
VERTEX
  5
7ABC
  8
IV_INTERIOR_PROFILES
 10
246.47499999999999
 20
-10.22500000000008
 30
0.0
 42
1.0
  0
SEQEND
  5
7ABD
  8
IV_INTERIOR_PROFILES
  0
POLYLINE
  5
76D
  8
IV_INTERIOR_PROFILES
 66
     1
 10
0.0
 20
0.0
 30
0.0
 70
   129
  0
VERTEX
  5
7ABE
  8
IV_INTERIOR_PROFILES
 10
241.47499999999999
 20
-71.22500000000008
 30
0.0
 42
1.0
  0
VERTEX
  5
7ABF
  8
IV_INTERIOR_PROFILES
 10
246.52500000000009
 20
-71.22500000000008
 30
0.0
 42
1.0
  0
SEQEND
  5
7AC0
  8
IV_INTERIOR_PROFILES
  0
POLYLINE
  5
76E
  8
IV_INTERIOR_PROFILES
 66
     1
 10
0.0
 20
0.0
 30
0.0
 70
   129
  0
VERTEX
  5
7AC1
  8
IV_INTERIOR_PROFILES
 10
292.5250000000002
 20
-10.22500000000008
 30
0.0
 42
1.0
  0
VERTEX
  5
7AC2
  8
IV_INTERIOR_PROFILES
 10
295.47500000000019
 20
-10.22500000000008
 30
0.0
 42
1.0
  0
SEQEND
  5
7AC3
  8
IV_INTERIOR_PROFILES
  0
POLYLINE
  5
76F
  8
IV_INTERIOR_PROFILES
 66
     1
 10
0.0
 20
0.0
 30
0.0
 70
   129
  0
VERTEX
  5
7AC4
  8
IV_INTERIOR_PROFILES
 10
341.52500000000009
 20
-10.22500000000008
 30
0.0
 42
1.0
  0
VERTEX
  5
7AC5
  8
IV_INTERIOR_PROFILES
 10
344.47500000000002
 20
-10.22500000000008
 30
0.0
 42
1.0
  0
SEQEND
  5
7AC6
  8
IV_INTERIOR_PROFILES
  0
POLYLINE
  5
770
  8
IV_INTERIOR_PROFILES
 66
     1
 10
0.0
 20
0.0
 30
0.0
 70
   129
  0
VERTEX
  5
7AC7
  8
IV_INTERIOR_PROFILES
 10
341.47500000000019
 20
-71.22500000000008
 30
0.0
 42
1.0
  0
VERTEX
  5
7AC8
  8
IV_INTERIOR_PROFILES
 10
346.52500000000009
 20
-71.22500000000008
 30
0.0
 42
1.0
  0
SEQEND
  5
7AC9
  8
IV_INTERIOR_PROFILES
  0
POLYLINE
  5
771
  8
IV_INTERIOR_PROFILES
 66
     1
 10
0.0
 20
0.0
 30
0.0
 70
   129
  0
VERTEX
  5
7ACA
  8
IV_INTERIOR_PROFILES
 10
390.52500000000009
 20
-10.22500000000008
 30
0.0
 42
1.0
  0
VERTEX
  5
7ACB
  8
IV_INTERIOR_PROFILES
 10
393.47500000000002
 20
-10.22500000000008
 30
0.0
 42
1.0
  0
SEQEND
  5
7ACC
  8
IV_INTERIOR_PROFILES
  0
POLYLINE
  5
772
  8
IV_INTERIOR_PROFILES
 66
     1
 10
0.0
 20
0.0
 30
0.0
 70
   129
  0
VERTEX
  5
7ACD
  8
IV_INTERIOR_PROFILES
 10
439.52499999999981
 20
-10.22500000000008
 30
0.0
 42
1.0
  0
VERTEX
  5
7ACE
  8
IV_INTERIOR_PROFILES
 10
442.47500000000002
 20
-10.22500000000008
 30
0.0
 42
1.0
  0
SEQEND
  5
7ACF
  8
IV_INTERIOR_PROFILES
  0
POLYLINE
  5
773
  8
IV_INTERIOR_PROFILES
 66
     1
 10
0.0
 20
0.0
 30
0.0
 70
   129
  0
VERTEX
  5
7AD0
  8
IV_INTERIOR_PROFILES
 10
410.375
 20
-71.22500000000008
 30
0.0
 42
1.0
  0
VERTEX
  5
7AD1
  8
IV_INTERIOR_PROFILES
 10
415.42500000000013
 20
-71.22500000000008
 30
0.0
 42
1.0
  0
SEQEND
  5
7AD2
  8
IV_INTERIOR_PROFILES
  0
POLYLINE
  5
774
  8
IV_INTERIOR_PROFILES
 66
     1
 10
0.0
 20
0.0
 30
0.0
 70
   129
  0
VERTEX
  5
7AD3
  8
IV_INTERIOR_PROFILES
 10
488.52499999999998
 20
-10.22500000000008
 30
0.0
 42
1.0
  0
VERTEX
  5
7AD4
  8
IV_INTERIOR_PROFILES
 10
491.47500000000002
 20
-10.22500000000008
 30
0.0
 42
1.0
  0
SEQEND
  5
7AD5
  8
IV_INTERIOR_PROFILES
  0
POLYLINE
  5
775
  8
IV_INTERIOR_PROFILES
 66
     1
 10
0.0
 20
0.0
 30
0.0
 70
   129
  0
VERTEX
  5
7AD6
  8
IV_INTERIOR_PROFILES
 10
537.52500000000009
 20
-10.22500000000008
 30
0.0
 42
1.0
  0
VERTEX
  5
7AD7
  8
IV_INTERIOR_PROFILES
 10
540.47500000000014
 20
-10.22500000000008
 30
0.0
 42
1.0
  0
SEQEND
  5
7AD8
  8
IV_INTERIOR_PROFILES
  0
POLYLINE
  5
776
  8
IV_INTERIOR_PROFILES
 66
     1
 10
0.0
 20
0.0
 30
0.0
 70
   129
  0
VERTEX
  5
7AD9
  8
IV_INTERIOR_PROFILES
 10
510.37499999999989
 20
-71.22500000000008
 30
0.0
 42
1.0
  0
VERTEX
  5
7ADA
  8
IV_INTERIOR_PROFILES
 10
515.42499999999995
 20
-71.22500000000008
 30
0.0
 42
1.0
  0
SEQEND
  5
7ADB
  8
IV_INTERIOR_PROFILES
  0
ENDBLK
  5
75F
  8
0
  0
BLOCK
  8
0
  2
X-FRONT-PLATE
 70
     0
 10
0.0
 20
0.0
 30
0.0
  3
X-FRONT-PLATE
  1

  0
POLYLINE
  5
7E6
  8
IV_OUTER_PROFILE
 66
     1
 10
0.0
 20
0.0
 30
0.0
 70
   129
  0
VERTEX
  5
7ADC
  8
IV_OUTER_PROFILE
 10
-6.350000000000021
 20
16.525000000000091
 30
0.0
 42
-0.414213562373095
  0
VERTEX
  5
7ADD
  8
IV_OUTER_PROFILE
 10
-0.1250000000001137
 20
22.75000000000011
 30
0.0
  0
VERTEX
  5
7ADE
  8
IV_OUTER_PROFILE
 10
505.87499999999977
 20
22.75000000000011
 30
0.0
 42
-0.4142135623730906
  0
VERTEX
  5
7ADF
  8
IV_OUTER_PROFILE
 10
512.10000000000002
 20
16.525000000000091
 30
0.0
  0
VERTEX
  5
7AE0
  8
IV_OUTER_PROFILE
 10
512.10000000000002
 20
-51.474999999999902
 30
0.0
 42
-0.4142135623730943
  0
VERTEX
  5
7AE1
  8
IV_OUTER_PROFILE
 10
505.87499999999977
 20
-57.699999999999932
 30
0.0
  0
VERTEX
  5
7AE2
  8
IV_OUTER_PROFILE
 10
444.75106308160838
 20
-57.699999999999811
 30
0.0
  0
VERTEX
  5
7AE3
  8
IV_OUTER_PROFILE
 10
444.75106308160838
 20
-51.099999999999888
 30
0.0
  0
VERTEX
  5
7AE4
  8
IV_OUTER_PROFILE
 10
420.00106308160878
 20
-51.099999999999888
 30
0.0
  0
VERTEX
  5
7AE5
  8
IV_OUTER_PROFILE
 10
420.00106308160878
 20
-57.699999999999811
 30
0.0
  0
VERTEX
  5
7AE6
  8
IV_OUTER_PROFILE
 10
85.748936918391223
 20
-57.699999999999811
 30
0.0
  0
VERTEX
  5
7AE7
  8
IV_OUTER_PROFILE
 10
85.748936918391223
 20
-51.099999999999888
 30
0.0
  0
VERTEX
  5
7AE8
  8
IV_OUTER_PROFILE
 10
60.998936918391202
 20
-51.099999999999888
 30
0.0
  0
VERTEX
  5
7AE9
  8
IV_OUTER_PROFILE
 10
60.998936918391351
 20
-57.699999999999811
 30
0.0
  0
VERTEX
  5
7AEA
  8
IV_OUTER_PROFILE
 10
-0.1250000000001137
 20
-57.699999999999811
 30
0.0
 42
-0.4142135623730951
  0
VERTEX
  5
7AEB
  8
IV_OUTER_PROFILE
 10
-6.350000000000021
 20
-51.474999999999902
 30
0.0
  0
SEQEND
  5
7AEC
  8
IV_OUTER_PROFILE
  0
POLYLINE
  5
7E7
  8
IV_INTERIOR_PROFILES
 66
     1
 10
0.0
 20
0.0
 30
0.0
 70
   129
  0
VERTEX
  5
7AED
  8
IV_INTERIOR_PROFILES
 10
424.5
 20
-15.84999999999979
 30
0.0
  0
VERTEX
  5
7AEE
  8
IV_INTERIOR_PROFILES
 10
424.5
 20
3.9000000000000878
 30
0.0
  0
VERTEX
  5
7AEF
  8
IV_INTERIOR_PROFILES
 10
430.25000000000011
 20
3.9000000000000878
 30
0.0
  0
VERTEX
  5
7AF0
  8
IV_INTERIOR_PROFILES
 10
430.25000000000011
 20
-15.84999999999979
 30
0.0
  0
SEQEND
  5
7AF1
  8
IV_INTERIOR_PROFILES
  0
POLYLINE
  5
7E8
  8
IV_INTERIOR_PROFILES
 66
     1
 10
0.0
 20
0.0
 30
0.0
 70
   129
  0
VERTEX
  5
7AF2
  8
IV_INTERIOR_PROFILES
 10
325.0
 20
-15.84999999999979
 30
0.0
  0
VERTEX
  5
7AF3
  8
IV_INTERIOR_PROFILES
 10
325.0
 20
3.9000000000000878
 30
0.0
  0
VERTEX
  5
7AF4
  8
IV_INTERIOR_PROFILES
 10
330.7500000000004
 20
3.9000000000000878
 30
0.0
  0
VERTEX
  5
7AF5
  8
IV_INTERIOR_PROFILES
 10
330.7500000000004
 20
-15.84999999999979
 30
0.0
  0
SEQEND
  5
7AF6
  8
IV_INTERIOR_PROFILES
  0
POLYLINE
  5
7E9
  8
IV_INTERIOR_PROFILES
 66
     1
 10
0.0
 20
0.0
 30
0.0
 70
   129
  0
VERTEX
  5
7AF7
  8
IV_INTERIOR_PROFILES
 10
175.0
 20
-15.84999999999979
 30
0.0
  0
VERTEX
  5
7AF8
  8
IV_INTERIOR_PROFILES
 10
175.0
 20
3.9000000000000878
 30
0.0
  0
VERTEX
  5
7AF9
  8
IV_INTERIOR_PROFILES
 10
180.7500000000002
 20
3.9000000000000878
 30
0.0
  0
VERTEX
  5
7AFA
  8
IV_INTERIOR_PROFILES
 10
180.7500000000002
 20
-15.84999999999979
 30
0.0
  0
SEQEND
  5
7AFB
  8
IV_INTERIOR_PROFILES
  0
POLYLINE
  5
7EA
  8
IV_INTERIOR_PROFILES
 66
     1
 10
0.0
 20
0.0
 30
0.0
 70
   129
  0
VERTEX
  5
7AFC
  8
IV_INTERIOR_PROFILES
 10
75.5
 20
-15.84999999999979
 30
0.0
  0
VERTEX
  5
7AFD
  8
IV_INTERIOR_PROFILES
 10
75.5
 20
3.9000000000000878
 30
0.0
  0
VERTEX
  5
7AFE
  8
IV_INTERIOR_PROFILES
 10
81.250000000000298
 20
3.9000000000000878
 30
0.0
  0
VERTEX
  5
7AFF
  8
IV_INTERIOR_PROFILES
 10
81.250000000000298
 20
-15.84999999999979
 30
0.0
  0
SEQEND
  5
7B00
  8
IV_INTERIOR_PROFILES
  0
POLYLINE
  5
7EB
  8
IV_INTERIOR_PROFILES
 66
     1
 10
0.0
 20
0.0
 30
0.0
 70
   129
  0
VERTEX
  5
7B01
  8
IV_INTERIOR_PROFILES
 10
499.9999999999992
 20
-34.749999999999893
 30
0.0
  0
VERTEX
  5
7B02
  8
IV_INTERIOR_PROFILES
 10
499.9999999999992
 20
0.0
 30
0.0
  0
VERTEX
  5
7B03
  8
IV_INTERIOR_PROFILES
 10
505.7499999999996
 20
0.0
 30
0.0
  0
VERTEX
  5
7B04
  8
IV_INTERIOR_PROFILES
 10
505.7499999999996
 20
-34.749999999999893
 30
0.0
  0
SEQEND
  5
7B05
  8
IV_INTERIOR_PROFILES
  0
POLYLINE
  5
7EC
  8
IV_INTERIOR_PROFILES
 66
     1
 10
0.0
 20
0.0
 30
0.0
 70
   129
  0
VERTEX
  5
7B06
  8
IV_INTERIOR_PROFILES
 10
0.0
 20
-34.749999999999893
 30
0.0
  0
VERTEX
  5
7B07
  8
IV_INTERIOR_PROFILES
 10
0.0
 20
0.0
 30
0.0
  0
VERTEX
  5
7B08
  8
IV_INTERIOR_PROFILES
 10
5.750000000000111
 20
0.0
 30
0.0
  0
VERTEX
  5
7B09
  8
IV_INTERIOR_PROFILES
 10
5.750000000000111
 20
-34.749999999999893
 30
0.0
  0
SEQEND
  5
7B0A
  8
IV_INTERIOR_PROFILES
  0
POLYLINE
  5
7ED
  8
IV_INTERIOR_PROFILES
 66
     1
 10
0.0
 20
0.0
 30
0.0
 70
   129
  0
VERTEX
  5
7B0B
  8
IV_INTERIOR_PROFILES
 10
13.349999999999911
 20
0.5250000000002048
 30
0.0
 42
1.0
  0
VERTEX
  5
7B0C
  8
IV_INTERIOR_PROFILES
 10
18.399999999999981
 20
0.5250000000002048
 30
0.0
 42
1.0
  0
SEQEND
  5
7B0D
  8
IV_INTERIOR_PROFILES
  0
POLYLINE
  5
7EE
  8
IV_INTERIOR_PROFILES
 66
     1
 10
0.0
 20
0.0
 30
0.0
 70
   129
  0
VERTEX
  5
7B0E
  8
IV_INTERIOR_PROFILES
 10
45.849999999999888
 20
12.525000000000089
 30
0.0
 42
1.0
  0
VERTEX
  5
7B0F
  8
IV_INTERIOR_PROFILES
 10
50.899999999999977
 20
12.525000000000089
 30
0.0
 42
1.0
  0
SEQEND
  5
7B10
  8
IV_INTERIOR_PROFILES
  0
POLYLINE
  5
7EF
  8
IV_INTERIOR_PROFILES
 66
     1
 10
0.0
 20
0.0
 30
0.0
 70
   129
  0
VERTEX
  5
7B11
  8
IV_INTERIOR_PROFILES
 10
40.599999999999902
 20
-7.4749999999999091
 30
0.0
 42
1.0
  0
VERTEX
  5
7B12
  8
IV_INTERIOR_PROFILES
 10
56.149999999999977
 20
-7.4749999999999091
 30
0.0
 42
1.0
  0
SEQEND
  5
7B13
  8
IV_INTERIOR_PROFILES
  0
POLYLINE
  5
7F0
  8
IV_INTERIOR_PROFILES
 66
     1
 10
0.0
 20
0.0
 30
0.0
 70
   129
  0
VERTEX
  5
7B14
  8
IV_INTERIOR_PROFILES
 10
45.849999999999888
 20
-27.474999999999909
 30
0.0
 42
1.0
  0
VERTEX
  5
7B15
  8
IV_INTERIOR_PROFILES
 10
50.899999999999977
 20
-27.474999999999909
 30
0.0
 42
1.0
  0
SEQEND
  5
7B16
  8
IV_INTERIOR_PROFILES
  0
POLYLINE
  5
7F1
  8
IV_INTERIOR_PROFILES
 66
     1
 10
0.0
 20
0.0
 30
0.0
 70
   129
  0
VERTEX
  5
7B17
  8
IV_INTERIOR_PROFILES
 10
40.349999999999902
 20
-48.474999999999888
 30
0.0
 42
1.0
  0
VERTEX
  5
7B18
  8
IV_INTERIOR_PROFILES
 10
45.399999999999977
 20
-48.474999999999888
 30
0.0
 42
1.0
  0
SEQEND
  5
7B19
  8
IV_INTERIOR_PROFILES
  0
POLYLINE
  5
7F2
  8
IV_INTERIOR_PROFILES
 66
     1
 10
0.0
 20
0.0
 30
0.0
 70
   129
  0
VERTEX
  5
7B1A
  8
IV_INTERIOR_PROFILES
 10
100.34999999999999
 20
-48.474999999999888
 30
0.0
 42
1.0
  0
VERTEX
  5
7B1B
  8
IV_INTERIOR_PROFILES
 10
105.40000000000001
 20
-48.474999999999888
 30
0.0
 42
1.0
  0
SEQEND
  5
7B1C
  8
IV_INTERIOR_PROFILES
  0
POLYLINE
  5
7F3
  8
IV_INTERIOR_PROFILES
 66
     1
 10
0.0
 20
0.0
 30
0.0
 70
   129
  0
VERTEX
  5
7B1D
  8
IV_INTERIOR_PROFILES
 10
105.8499999999998
 20
-27.474999999999909
 30
0.0
 42
1.0
  0
VERTEX
  5
7B1E
  8
IV_INTERIOR_PROFILES
 10
110.89999999999981
 20
-27.474999999999909
 30
0.0
 42
1.0
  0
SEQEND
  5
7B1F
  8
IV_INTERIOR_PROFILES
  0
POLYLINE
  5
7F4
  8
IV_INTERIOR_PROFILES
 66
     1
 10
0.0
 20
0.0
 30
0.0
 70
   129
  0
VERTEX
  5
7B20
  8
IV_INTERIOR_PROFILES
 10
105.8499999999998
 20
12.525000000000089
 30
0.0
 42
1.0
  0
VERTEX
  5
7B21
  8
IV_INTERIOR_PROFILES
 10
110.89999999999981
 20
12.525000000000089
 30
0.0
 42
1.0
  0
SEQEND
  5
7B22
  8
IV_INTERIOR_PROFILES
  0
POLYLINE
  5
7F5
  8
IV_INTERIOR_PROFILES
 66
     1
 10
0.0
 20
0.0
 30
0.0
 70
   129
  0
VERTEX
  5
7B23
  8
IV_INTERIOR_PROFILES
 10
100.5999999999998
 20
-7.4749999999999091
 30
0.0
 42
1.0
  0
VERTEX
  5
7B24
  8
IV_INTERIOR_PROFILES
 10
116.14999999999981
 20
-7.4749999999999091
 30
0.0
 42
1.0
  0
SEQEND
  5
7B25
  8
IV_INTERIOR_PROFILES
  0
POLYLINE
  5
7F6
  8
IV_INTERIOR_PROFILES
 66
     1
 10
0.0
 20
0.0
 30
0.0
 70
   129
  0
VERTEX
  5
7B26
  8
IV_INTERIOR_PROFILES
 10
162.34999999999999
 20
0.5250000000002048
 30
0.0
 42
1.0
  0
VERTEX
  5
7B27
  8
IV_INTERIOR_PROFILES
 10
167.39999999999981
 20
0.5250000000002048
 30
0.0
 42
1.0
  0
SEQEND
  5
7B28
  8
IV_INTERIOR_PROFILES
  0
POLYLINE
  5
7F7
  8
IV_INTERIOR_PROFILES
 66
     1
 10
0.0
 20
0.0
 30
0.0
 70
   129
  0
VERTEX
  5
7B29
  8
IV_INTERIOR_PROFILES
 10
160.34999999999991
 20
-48.474999999999888
 30
0.0
 42
1.0
  0
VERTEX
  5
7B2A
  8
IV_INTERIOR_PROFILES
 10
165.39999999999981
 20
-48.474999999999888
 30
0.0
 42
1.0
  0
SEQEND
  5
7B2B
  8
IV_INTERIOR_PROFILES
  0
POLYLINE
  5
7F8
  8
IV_INTERIOR_PROFILES
 66
     1
 10
0.0
 20
0.0
 30
0.0
 70
   129
  0
VERTEX
  5
7B2C
  8
IV_INTERIOR_PROFILES
 10
220.34999999999999
 20
-48.474999999999888
 30
0.0
 42
1.0
  0
VERTEX
  5
7B2D
  8
IV_INTERIOR_PROFILES
 10
225.40000000000001
 20
-48.474999999999888
 30
0.0
 42
1.0
  0
SEQEND
  5
7B2E
  8
IV_INTERIOR_PROFILES
  0
POLYLINE
  5
7F9
  8
IV_INTERIOR_PROFILES
 66
     1
 10
0.0
 20
0.0
 30
0.0
 70
   129
  0
VERTEX
  5
7B2F
  8
IV_INTERIOR_PROFILES
 10
226.84999999999991
 20
-42.474999999999902
 30
0.0
 42
1.0
  0
VERTEX
  5
7B30
  8
IV_INTERIOR_PROFILES
 10
231.90000000000001
 20
-42.474999999999902
 30
0.0
 42
1.0
  0
SEQEND
  5
7B31
  8
IV_INTERIOR_PROFILES
  0
POLYLINE
  5
7FA
  8
IV_INTERIOR_PROFILES
 66
     1
 10
0.0
 20
0.0
 30
0.0
 70
   129
  0
VERTEX
  5
7B32
  8
IV_INTERIOR_PROFILES
 10
235.84999999999999
 20
-34.474999999999909
 30
0.0
 42
1.0
  0
VERTEX
  5
7B33
  8
IV_INTERIOR_PROFILES
 10
238.90000000000001
 20
-34.474999999999909
 30
0.0
 42
1.0
  0
SEQEND
  5
7B34
  8
IV_INTERIOR_PROFILES
  0
POLYLINE
  5
7FB
  8
IV_INTERIOR_PROFILES
 66
     1
 10
0.0
 20
0.0
 30
0.0
 70
   129
  0
VERTEX
  5
7B35
  8
IV_INTERIOR_PROFILES
 10
227.34999999999999
 20
-18.974999999999891
 30
0.0
 42
1.0
  0
VERTEX
  5
7B36
  8
IV_INTERIOR_PROFILES
 10
233.40000000000001
 20
-18.974999999999891
 30
0.0
 42
1.0
  0
SEQEND
  5
7B37
  8
IV_INTERIOR_PROFILES
  0
POLYLINE
  5
7FC
  8
IV_INTERIOR_PROFILES
 66
     1
 10
0.0
 20
0.0
 30
0.0
 70
   129
  0
VERTEX
  5
7B38
  8
IV_INTERIOR_PROFILES
 10
235.84999999999999
 20
-3.4749999999999082
 30
0.0
 42
1.0
  0
VERTEX
  5
7B39
  8
IV_INTERIOR_PROFILES
 10
238.90000000000001
 20
-3.4749999999999082
 30
0.0
 42
1.0
  0
SEQEND
  5
7B3A
  8
IV_INTERIOR_PROFILES
  0
POLYLINE
  5
7FD
  8
IV_INTERIOR_PROFILES
 66
     1
 10
0.0
 20
0.0
 30
0.0
 70
   129
  0
VERTEX
  5
7B3B
  8
IV_INTERIOR_PROFILES
 10
226.84999999999991
 20
4.5250000000000892
 30
0.0
 42
1.0
  0
VERTEX
  5
7B3C
  8
IV_INTERIOR_PROFILES
 10
231.90000000000001
 20
4.5250000000000892
 30
0.0
 42
1.0
  0
SEQEND
  5
7B3D
  8
IV_INTERIOR_PROFILES
  0
POLYLINE
  5
7FE
  8
IV_INTERIOR_PROFILES
 66
     1
 10
0.0
 20
0.0
 30
0.0
 70
   129
  0
VERTEX
  5
7B3E
  8
IV_INTERIOR_PROFILES
 10
248.09999999999999
 20
-18.974999999999891
 30
0.0
 42
1.0
  0
VERTEX
  5
7B3F
  8
IV_INTERIOR_PROFILES
 10
257.64999999999998
 20
-18.974999999999891
 30
0.0
 42
1.0
  0
SEQEND
  5
7B40
  8
IV_INTERIOR_PROFILES
  0
POLYLINE
  5
7FF
  8
IV_INTERIOR_PROFILES
 66
     1
 10
0.0
 20
0.0
 30
0.0
 70
   129
  0
VERTEX
  5
7B41
  8
IV_INTERIOR_PROFILES
 10
266.85000000000002
 20
-3.4749999999999082
 30
0.0
 42
1.0
  0
VERTEX
  5
7B42
  8
IV_INTERIOR_PROFILES
 10
269.89999999999998
 20
-3.4749999999999082
 30
0.0
 42
1.0
  0
SEQEND
  5
7B43
  8
IV_INTERIOR_PROFILES
  0
POLYLINE
  5
800
  8
IV_INTERIOR_PROFILES
 66
     1
 10
0.0
 20
0.0
 30
0.0
 70
   129
  0
VERTEX
  5
7B44
  8
IV_INTERIOR_PROFILES
 10
273.84999999999991
 20
4.5250000000000892
 30
0.0
 42
1.0
  0
VERTEX
  5
7B45
  8
IV_INTERIOR_PROFILES
 10
278.89999999999992
 20
4.5250000000000892
 30
0.0
 42
1.0
  0
SEQEND
  5
7B46
  8
IV_INTERIOR_PROFILES
  0
POLYLINE
  5
801
  8
IV_INTERIOR_PROFILES
 66
     1
 10
0.0
 20
0.0
 30
0.0
 70
   129
  0
VERTEX
  5
7B47
  8
IV_INTERIOR_PROFILES
 10
287.54999999999973
 20
2.0250000000000901
 30
0.0
 42
1.0
  0
VERTEX
  5
7B48
  8
IV_INTERIOR_PROFILES
 10
290.19999999999987
 20
2.0250000000000901
 30
0.0
 42
1.0
  0
SEQEND
  5
7B49
  8
IV_INTERIOR_PROFILES
  0
POLYLINE
  5
802
  8
IV_INTERIOR_PROFILES
 66
     1
 10
0.0
 20
0.0
 30
0.0
 70
   129
  0
VERTEX
  5
7B4A
  8
IV_INTERIOR_PROFILES
 10
272.35000000000002
 20
-18.974999999999891
 30
0.0
 42
1.0
  0
VERTEX
  5
7B4B
  8
IV_INTERIOR_PROFILES
 10
278.39999999999998
 20
-18.974999999999891
 30
0.0
 42
1.0
  0
SEQEND
  5
7B4C
  8
IV_INTERIOR_PROFILES
  0
POLYLINE
  5
803
  8
IV_INTERIOR_PROFILES
 66
     1
 10
0.0
 20
0.0
 30
0.0
 70
   129
  0
VERTEX
  5
7B4D
  8
IV_INTERIOR_PROFILES
 10
287.54999999999973
 20
-18.974999999999891
 30
0.0
 42
1.0
  0
VERTEX
  5
7B4E
  8
IV_INTERIOR_PROFILES
 10
290.19999999999987
 20
-18.974999999999891
 30
0.0
 42
1.0
  0
SEQEND
  5
7B4F
  8
IV_INTERIOR_PROFILES
  0
POLYLINE
  5
804
  8
IV_INTERIOR_PROFILES
 66
     1
 10
0.0
 20
0.0
 30
0.0
 70
   129
  0
VERTEX
  5
7B50
  8
IV_INTERIOR_PROFILES
 10
266.85000000000002
 20
-34.474999999999909
 30
0.0
 42
1.0
  0
VERTEX
  5
7B51
  8
IV_INTERIOR_PROFILES
 10
269.89999999999998
 20
-34.474999999999909
 30
0.0
 42
1.0
  0
SEQEND
  5
7B52
  8
IV_INTERIOR_PROFILES
  0
POLYLINE
  5
805
  8
IV_INTERIOR_PROFILES
 66
     1
 10
0.0
 20
0.0
 30
0.0
 70
   129
  0
VERTEX
  5
7B53
  8
IV_INTERIOR_PROFILES
 10
273.84999999999991
 20
-42.474999999999902
 30
0.0
 42
1.0
  0
VERTEX
  5
7B54
  8
IV_INTERIOR_PROFILES
 10
278.89999999999992
 20
-42.474999999999902
 30
0.0
 42
1.0
  0
SEQEND
  5
7B55
  8
IV_INTERIOR_PROFILES
  0
POLYLINE
  5
806
  8
IV_INTERIOR_PROFILES
 66
     1
 10
0.0
 20
0.0
 30
0.0
 70
   129
  0
VERTEX
  5
7B56
  8
IV_INTERIOR_PROFILES
 10
280.35000000000002
 20
-48.474999999999888
 30
0.0
 42
1.0
  0
VERTEX
  5
7B57
  8
IV_INTERIOR_PROFILES
 10
285.39999999999998
 20
-48.474999999999888
 30
0.0
 42
1.0
  0
SEQEND
  5
7B58
  8
IV_INTERIOR_PROFILES
  0
POLYLINE
  5
807
  8
IV_INTERIOR_PROFILES
 66
     1
 10
0.0
 20
0.0
 30
0.0
 70
   129
  0
VERTEX
  5
7B59
  8
IV_INTERIOR_PROFILES
 10
340.35000000000002
 20
-48.474999999999888
 30
0.0
 42
1.0
  0
VERTEX
  5
7B5A
  8
IV_INTERIOR_PROFILES
 10
345.39999999999998
 20
-48.474999999999888
 30
0.0
 42
1.0
  0
SEQEND
  5
7B5B
  8
IV_INTERIOR_PROFILES
  0
POLYLINE
  5
808
  8
IV_INTERIOR_PROFILES
 66
     1
 10
0.0
 20
0.0
 30
0.0
 70
   129
  0
VERTEX
  5
7B5C
  8
IV_INTERIOR_PROFILES
 10
318.55000000000013
 20
-18.974999999999891
 30
0.0
 42
1.0
  0
VERTEX
  5
7B5D
  8
IV_INTERIOR_PROFILES
 10
321.2000000000001
 20
-18.974999999999891
 30
0.0
 42
1.0
  0
SEQEND
  5
7B5E
  8
IV_INTERIOR_PROFILES
  0
POLYLINE
  5
809
  8
IV_INTERIOR_PROFILES
 66
     1
 10
0.0
 20
0.0
 30
0.0
 70
   129
  0
VERTEX
  5
7B5F
  8
IV_INTERIOR_PROFILES
 10
318.55000000000013
 20
2.0250000000000901
 30
0.0
 42
1.0
  0
VERTEX
  5
7B60
  8
IV_INTERIOR_PROFILES
 10
321.19999999999987
 20
2.0250000000000901
 30
0.0
 42
1.0
  0
SEQEND
  5
7B61
  8
IV_INTERIOR_PROFILES
  0
POLYLINE
  5
80A
  8
IV_INTERIOR_PROFILES
 66
     1
 10
0.0
 20
0.0
 30
0.0
 70
   129
  0
VERTEX
  5
7B62
  8
IV_INTERIOR_PROFILES
 10
338.35000000000002
 20
0.5250000000002048
 30
0.0
 42
1.0
  0
VERTEX
  5
7B63
  8
IV_INTERIOR_PROFILES
 10
343.39999999999998
 20
0.5250000000002048
 30
0.0
 42
1.0
  0
SEQEND
  5
7B64
  8
IV_INTERIOR_PROFILES
  0
POLYLINE
  5
80B
  8
IV_INTERIOR_PROFILES
 66
     1
 10
0.0
 20
0.0
 30
0.0
 70
   129
  0
VERTEX
  5
7B65
  8
IV_INTERIOR_PROFILES
 10
343.55000000000013
 20
-18.974999999999891
 30
0.0
 42
1.0
  0
VERTEX
  5
7B66
  8
IV_INTERIOR_PROFILES
 10
346.19999999999987
 20
-18.974999999999891
 30
0.0
 42
1.0
  0
SEQEND
  5
7B67
  8
IV_INTERIOR_PROFILES
  0
POLYLINE
  5
80C
  8
IV_INTERIOR_PROFILES
 66
     1
 10
0.0
 20
0.0
 30
0.0
 70
   129
  0
VERTEX
  5
7B68
  8
IV_INTERIOR_PROFILES
 10
358.55000000000013
 20
-15.474999999999911
 30
0.0
 42
1.0
  0
VERTEX
  5
7B69
  8
IV_INTERIOR_PROFILES
 10
361.19999999999987
 20
-15.474999999999911
 30
0.0
 42
1.0
  0
SEQEND
  5
7B6A
  8
IV_INTERIOR_PROFILES
  0
POLYLINE
  5
80D
  8
IV_INTERIOR_PROFILES
 66
     1
 10
0.0
 20
0.0
 30
0.0
 70
   129
  0
VERTEX
  5
7B6B
  8
IV_INTERIOR_PROFILES
 10
358.55000000000013
 20
4.5250000000000892
 30
0.0
 42
1.0
  0
VERTEX
  5
7B6C
  8
IV_INTERIOR_PROFILES
 10
361.19999999999987
 20
4.5250000000000892
 30
0.0
 42
1.0
  0
SEQEND
  5
7B6D
  8
IV_INTERIOR_PROFILES
  0
POLYLINE
  5
80E
  8
IV_INTERIOR_PROFILES
 66
     1
 10
0.0
 20
0.0
 30
0.0
 70
   129
  0
VERTEX
  5
7B6E
  8
IV_INTERIOR_PROFILES
 10
394.85000000000002
 20
12.525000000000089
 30
0.0
 42
1.0
  0
VERTEX
  5
7B6F
  8
IV_INTERIOR_PROFILES
 10
399.89999999999998
 20
12.525000000000089
 30
0.0
 42
1.0
  0
SEQEND
  5
7B70
  8
IV_INTERIOR_PROFILES
  0
POLYLINE
  5
80F
  8
IV_INTERIOR_PROFILES
 66
     1
 10
0.0
 20
0.0
 30
0.0
 70
   129
  0
VERTEX
  5
7B71
  8
IV_INTERIOR_PROFILES
 10
389.5
 20
-7.4749999999999091
 30
0.0
 42
1.0
  0
VERTEX
  5
7B72
  8
IV_INTERIOR_PROFILES
 10
405.24999999999989
 20
-7.4749999999999091
 30
0.0
 42
1.0
  0
SEQEND
  5
7B73
  8
IV_INTERIOR_PROFILES
  0
POLYLINE
  5
810
  8
IV_INTERIOR_PROFILES
 66
     1
 10
0.0
 20
0.0
 30
0.0
 70
   129
  0
VERTEX
  5
7B74
  8
IV_INTERIOR_PROFILES
 10
394.85000000000002
 20
-27.474999999999909
 30
0.0
 42
1.0
  0
VERTEX
  5
7B75
  8
IV_INTERIOR_PROFILES
 10
399.89999999999998
 20
-27.474999999999909
 30
0.0
 42
1.0
  0
SEQEND
  5
7B76
  8
IV_INTERIOR_PROFILES
  0
POLYLINE
  5
811
  8
IV_INTERIOR_PROFILES
 66
     1
 10
0.0
 20
0.0
 30
0.0
 70
   129
  0
VERTEX
  5
7B77
  8
IV_INTERIOR_PROFILES
 10
400.35000000000002
 20
-48.474999999999888
 30
0.0
 42
1.0
  0
VERTEX
  5
7B78
  8
IV_INTERIOR_PROFILES
 10
405.39999999999998
 20
-48.474999999999888
 30
0.0
 42
1.0
  0
SEQEND
  5
7B79
  8
IV_INTERIOR_PROFILES
  0
POLYLINE
  5
812
  8
IV_INTERIOR_PROFILES
 66
     1
 10
0.0
 20
0.0
 30
0.0
 70
   129
  0
VERTEX
  5
7B7A
  8
IV_INTERIOR_PROFILES
 10
454.85000000000002
 20
12.525000000000089
 30
0.0
 42
1.0
  0
VERTEX
  5
7B7B
  8
IV_INTERIOR_PROFILES
 10
459.89999999999998
 20
12.525000000000089
 30
0.0
 42
1.0
  0
SEQEND
  5
7B7C
  8
IV_INTERIOR_PROFILES
  0
POLYLINE
  5
813
  8
IV_INTERIOR_PROFILES
 66
     1
 10
0.0
 20
0.0
 30
0.0
 70
   129
  0
VERTEX
  5
7B7D
  8
IV_INTERIOR_PROFILES
 10
449.60000000000002
 20
-7.4749999999999091
 30
0.0
 42
1.0
  0
VERTEX
  5
7B7E
  8
IV_INTERIOR_PROFILES
 10
465.14999999999992
 20
-7.4749999999999091
 30
0.0
 42
1.0
  0
SEQEND
  5
7B7F
  8
IV_INTERIOR_PROFILES
  0
POLYLINE
  5
814
  8
IV_INTERIOR_PROFILES
 66
     1
 10
0.0
 20
0.0
 30
0.0
 70
   129
  0
VERTEX
  5
7B80
  8
IV_INTERIOR_PROFILES
 10
454.85000000000002
 20
-27.474999999999909
 30
0.0
 42
1.0
  0
VERTEX
  5
7B81
  8
IV_INTERIOR_PROFILES
 10
459.89999999999998
 20
-27.474999999999909
 30
0.0
 42
1.0
  0
SEQEND
  5
7B82
  8
IV_INTERIOR_PROFILES
  0
POLYLINE
  5
815
  8
IV_INTERIOR_PROFILES
 66
     1
 10
0.0
 20
0.0
 30
0.0
 70
   129
  0
VERTEX
  5
7B83
  8
IV_INTERIOR_PROFILES
 10
460.35000000000002
 20
-48.474999999999888
 30
0.0
 42
1.0
  0
VERTEX
  5
7B84
  8
IV_INTERIOR_PROFILES
 10
465.39999999999992
 20
-48.474999999999888
 30
0.0
 42
1.0
  0
SEQEND
  5
7B85
  8
IV_INTERIOR_PROFILES
  0
POLYLINE
  5
816
  8
IV_INTERIOR_PROFILES
 66
     1
 10
0.0
 20
0.0
 30
0.0
 70
   129
  0
VERTEX
  5
7B86
  8
IV_INTERIOR_PROFILES
 10
476.85000000000002
 20
-33.474999999999909
 30
0.0
 42
1.0
  0
VERTEX
  5
7B87
  8
IV_INTERIOR_PROFILES
 10
488.89999999999998
 20
-33.474999999999909
 30
0.0
 42
1.0
  0
SEQEND
  5
7B88
  8
IV_INTERIOR_PROFILES
  0
POLYLINE
  5
817
  8
IV_INTERIOR_PROFILES
 66
     1
 10
0.0
 20
0.0
 30
0.0
 70
   129
  0
VERTEX
  5
7B89
  8
IV_INTERIOR_PROFILES
 10
487.34999999999991
 20
0.5250000000002048
 30
0.0
 42
1.0
  0
VERTEX
  5
7B8A
  8
IV_INTERIOR_PROFILES
 10
492.39999999999992
 20
0.5250000000002048
 30
0.0
 42
1.0
  0
SEQEND
  5
7B8B
  8
IV_INTERIOR_PROFILES
  0
ENDBLK
  5
7E5
  8
0
  0
BLOCK
  8
0
  2
X-UNDER-RIB-HORISONTAL
 70
     0
 10
0.0
 20
0.0
 30
0.0
  3
X-UNDER-RIB-HORISONTAL
  1

  0
POLYLINE
  5
82D
  8
IV_OUTER_PROFILE
 66
     1
 10
0.0
 20
0.0
 30
0.0
 70
   129
  0
VERTEX
  5
7B8C
  8
IV_OUTER_PROFILE
 10
-6.0
 20
-70.449999999999932
 30
0.0
  0
VERTEX
  5
7B8D
  8
IV_OUTER_PROFILE
 10
-6.0
 20
-20.0
 30
0.0
  0
VERTEX
  5
7B8E
  8
IV_OUTER_PROFILE
 10
0.0
 20
-20.0
 30
0.0
  0
VERTEX
  5
7B8F
  8
IV_OUTER_PROFILE
 10
0.0
 20
0.0
 30
0.0
  0
VERTEX
  5
7B90
  8
IV_OUTER_PROFILE
 10
494.44999999999987
 20
0.0
 30
0.0
  0
VERTEX
  5
7B91
  8
IV_OUTER_PROFILE
 10
494.44999999999987
 20
-20.0
 30
0.0
  0
VERTEX
  5
7B92
  8
IV_OUTER_PROFILE
 10
500.44999999999999
 20
-20.0
 30
0.0
  0
VERTEX
  5
7B93
  8
IV_OUTER_PROFILE
 10
500.44999999999999
 20
-70.449999999999932
 30
0.0
  0
VERTEX
  5
7B94
  8
IV_OUTER_PROFILE
 10
494.44999999999987
 20
-70.449999999999932
 30
0.0
  0
VERTEX
  5
7B95
  8
IV_OUTER_PROFILE
 10
494.44999999999987
 20
-90.449999999999946
 30
0.0
  0
VERTEX
  5
7B96
  8
IV_OUTER_PROFILE
 10
0.0
 20
-90.449999999999946
 30
0.0
  0
VERTEX
  5
7B97
  8
IV_OUTER_PROFILE
 10
0.0
 20
-70.449999999999932
 30
0.0
  0
SEQEND
  5
7B98
  8
IV_OUTER_PROFILE
  0
POLYLINE
  5
82E
  8
IV_INTERIOR_PROFILES
 66
     1
 10
0.0
 20
0.0
 30
0.0
 70
   129
  0
VERTEX
  5
7B99
  8
IV_INTERIOR_PROFILES
 10
418.84999999999951
 20
-30.349999999999799
 30
0.0
  0
VERTEX
  5
7B9A
  8
IV_INTERIOR_PROFILES
 10
424.59999999999911
 20
-30.349999999999799
 30
0.0
  0
VERTEX
  5
7B9B
  8
IV_INTERIOR_PROFILES
 10
424.59999999999911
 20
-60.099999999999902
 30
0.0
  0
VERTEX
  5
7B9C
  8
IV_INTERIOR_PROFILES
 10
418.84999999999951
 20
-60.099999999999902
 30
0.0
  0
SEQEND
  5
7B9D
  8
IV_INTERIOR_PROFILES
  0
POLYLINE
  5
82F
  8
IV_INTERIOR_PROFILES
 66
     1
 10
0.0
 20
0.0
 30
0.0
 70
   129
  0
VERTEX
  5
7B9E
  8
IV_INTERIOR_PROFILES
 10
319.34999999999968
 20
-30.349999999999799
 30
0.0
  0
VERTEX
  5
7B9F
  8
IV_INTERIOR_PROFILES
 10
325.0999999999994
 20
-30.349999999999799
 30
0.0
  0
VERTEX
  5
7BA0
  8
IV_INTERIOR_PROFILES
 10
325.0999999999994
 20
-60.099999999999902
 30
0.0
  0
VERTEX
  5
7BA1
  8
IV_INTERIOR_PROFILES
 10
319.34999999999968
 20
-60.099999999999902
 30
0.0
  0
SEQEND
  5
7BA2
  8
IV_INTERIOR_PROFILES
  0
POLYLINE
  5
830
  8
IV_INTERIOR_PROFILES
 66
     1
 10
0.0
 20
0.0
 30
0.0
 70
   129
  0
VERTEX
  5
7BA3
  8
IV_INTERIOR_PROFILES
 10
169.34999999999971
 20
-30.349999999999799
 30
0.0
  0
VERTEX
  5
7BA4
  8
IV_INTERIOR_PROFILES
 10
175.0999999999994
 20
-30.349999999999799
 30
0.0
  0
VERTEX
  5
7BA5
  8
IV_INTERIOR_PROFILES
 10
175.0999999999994
 20
-60.099999999999902
 30
0.0
  0
VERTEX
  5
7BA6
  8
IV_INTERIOR_PROFILES
 10
169.34999999999971
 20
-60.099999999999902
 30
0.0
  0
SEQEND
  5
7BA7
  8
IV_INTERIOR_PROFILES
  0
POLYLINE
  5
831
  8
IV_INTERIOR_PROFILES
 66
     1
 10
0.0
 20
0.0
 30
0.0
 70
   129
  0
VERTEX
  5
7BA8
  8
IV_INTERIOR_PROFILES
 10
69.849999999999682
 20
-30.349999999999799
 30
0.0
  0
VERTEX
  5
7BA9
  8
IV_INTERIOR_PROFILES
 10
75.599999999999454
 20
-30.349999999999799
 30
0.0
  0
VERTEX
  5
7BAA
  8
IV_INTERIOR_PROFILES
 10
75.599999999999454
 20
-60.099999999999902
 30
0.0
  0
VERTEX
  5
7BAB
  8
IV_INTERIOR_PROFILES
 10
69.849999999999682
 20
-60.099999999999902
 30
0.0
  0
SEQEND
  5
7BAC
  8
IV_INTERIOR_PROFILES
  0
ENDBLK
  5
82C
  8
0
  0
BLOCK
  8
0
  2
X-UNDER-RIB-VERT
 70
     0
 10
0.0
 20
0.0
 30
0.0
  3
X-UNDER-RIB-VERT
  1

  0
POLYLINE
  5
840
  8
IV_OUTER_PROFILE
 66
     1
 10
0.0
 20
0.0
 30
0.0
 70
   129
  0
VERTEX
  5
7BAD
  8
IV_OUTER_PROFILE
 10
594.00000000000011
 20
-6.500000000000056
 30
0.0
  0
VERTEX
  5
7BAE
  8
IV_OUTER_PROFILE
 10
594.00000000000011
 20
-26.95000000000006
 30
0.0
  0
VERTEX
  5
7BAF
  8
IV_OUTER_PROFILE
 10
588.00000000000011
 20
-26.95000000000006
 30
0.0
  0
VERTEX
  5
7BB0
  8
IV_OUTER_PROFILE
 10
588.00000000000011
 20
-34.45000000000006
 30
0.0
  0
VERTEX
  5
7BB1
  8
IV_OUTER_PROFILE
 10
0.0
 20
-34.45000000000006
 30
0.0
  0
VERTEX
  5
7BB2
  8
IV_OUTER_PROFILE
 10
0.0
 20
-26.950000000000099
 30
0.0
  0
VERTEX
  5
7BB3
  8
IV_OUTER_PROFILE
 10
-6.0
 20
-26.95000000000006
 30
0.0
  0
VERTEX
  5
7BB4
  8
IV_OUTER_PROFILE
 10
-6.0
 20
-6.500000000000056
 30
0.0
  0
VERTEX
  5
7BB5
  8
IV_OUTER_PROFILE
 10
0.0
 20
-6.500000000000056
 30
0.0
  0
VERTEX
  5
7BB6
  8
IV_OUTER_PROFILE
 10
0.0
 20
-0.0000000000000568
 30
0.0
  0
VERTEX
  5
7BB7
  8
IV_OUTER_PROFILE
 10
109.875
 20
-0.0000000000000568
 30
0.0
  0
VERTEX
  5
7BB8
  8
IV_OUTER_PROFILE
 10
109.875
 20
5.9999999999999432
 30
0.0
  0
VERTEX
  5
7BB9
  8
IV_OUTER_PROFILE
 10
140.32499999999999
 20
5.9999999999999432
 30
0.0
  0
VERTEX
  5
7BBA
  8
IV_OUTER_PROFILE
 10
140.32499999999999
 20
-0.0000000000000568
 30
0.0
  0
VERTEX
  5
7BBB
  8
IV_OUTER_PROFILE
 10
278.77500000000009
 20
-0.0000000000000568
 30
0.0
  0
VERTEX
  5
7BBC
  8
IV_OUTER_PROFILE
 10
278.77500000000009
 20
5.9999999999999432
 30
0.0
  0
VERTEX
  5
7BBD
  8
IV_OUTER_PROFILE
 10
309.22500000000008
 20
5.9999999999999432
 30
0.0
  0
VERTEX
  5
7BBE
  8
IV_OUTER_PROFILE
 10
309.22500000000008
 20
-0.0000000000000568
 30
0.0
  0
VERTEX
  5
7BBF
  8
IV_OUTER_PROFILE
 10
447.67500000000001
 20
-0.0000000000000568
 30
0.0
  0
VERTEX
  5
7BC0
  8
IV_OUTER_PROFILE
 10
447.67500000000001
 20
5.9999999999999432
 30
0.0
  0
VERTEX
  5
7BC1
  8
IV_OUTER_PROFILE
 10
478.125
 20
5.9999999999999432
 30
0.0
  0
VERTEX
  5
7BC2
  8
IV_OUTER_PROFILE
 10
478.125
 20
-0.0000000000001705
 30
0.0
  0
VERTEX
  5
7BC3
  8
IV_OUTER_PROFILE
 10
588.00000000000011
 20
-0.0000000000000568
 30
0.0
  0
VERTEX
  5
7BC4
  8
IV_OUTER_PROFILE
 10
588.00000000000011
 20
-6.5000000000001679
 30
0.0
  0
SEQEND
  5
7BC5
  8
IV_OUTER_PROFILE
  0
ENDBLK
  5
83F
  8
0
  0
BLOCK
  8
0
  2
X-ALUS-1
 70
     0
 10
0.0
 20
0.0
 30
0.0
  3
X-ALUS-1
  1

  0
POLYLINE
  5
891
  8
IV_OUTER_PROFILE
 66
     1
 10
0.0
 20
0.0
 30
0.0
 70
   129
  0
VERTEX
  5
7BC6
  8
IV_OUTER_PROFILE
 10
337.85000000000042
 20
0.0000000000003411
 30
0.0
  0
VERTEX
  5
7BC7
  8
IV_OUTER_PROFILE
 10
450.44999999999999
 20
0.0
 30
0.0
  0
VERTEX
  5
7BC8
  8
IV_OUTER_PROFILE
 10
450.44999999999999
 20
-294.3499999999998
 30
0.0
  0
VERTEX
  5
7BC9
  8
IV_OUTER_PROFILE
 10
417.45106308160871
 20
-294.3499999999998
 30
0.0
  0
VERTEX
  5
7BCA
  8
IV_OUTER_PROFILE
 10
417.45106308160871
 20
-300.3499999999998
 30
0.0
  0
VERTEX
  5
7BCB
  8
IV_OUTER_PROFILE
 10
392.00106308160872
 20
-300.3499999999998
 30
0.0
  0
VERTEX
  5
7BCC
  8
IV_OUTER_PROFILE
 10
392.00106308160872
 20
-294.3499999999998
 30
0.0
  0
VERTEX
  5
7BCD
  8
IV_OUTER_PROFILE
 10
58.448936918391382
 20
-294.3499999999998
 30
0.0
  0
VERTEX
  5
7BCE
  8
IV_OUTER_PROFILE
 10
58.448936918391382
 20
-300.3499999999998
 30
0.0
  0
VERTEX
  5
7BCF
  8
IV_OUTER_PROFILE
 10
32.998936918391337
 20
-300.3499999999998
 30
0.0
  0
VERTEX
  5
7BD0
  8
IV_OUTER_PROFILE
 10
32.998936918391337
 20
-294.3499999999998
 30
0.0
  0
VERTEX
  5
7BD1
  8
IV_OUTER_PROFILE
 10
0.0
 20
-294.3499999999998
 30
0.0
  0
VERTEX
  5
7BD2
  8
IV_OUTER_PROFILE
 10
0.0
 20
0.0
 30
0.0
  0
VERTEX
  5
7BD3
  8
IV_OUTER_PROFILE
 10
112.84999999999999
 20
0.0000000000003411
 30
0.0
  0
VERTEX
  5
7BD4
  8
IV_OUTER_PROFILE
 10
112.84999999999999
 20
-5.9999999999997691
 30
0.0
  0
VERTEX
  5
7BD5
  8
IV_OUTER_PROFILE
 10
225.10000000000011
 20
-5.9999999999996572
 30
0.0
  0
VERTEX
  5
7BD6
  8
IV_OUTER_PROFILE
 10
225.09999999999991
 20
6.0000000000003411
 30
0.0
  0
VERTEX
  5
7BD7
  8
IV_OUTER_PROFILE
 10
337.85000000000042
 20
6.0000000000003411
 30
0.0
  0
SEQEND
  5
7BD8
  8
IV_OUTER_PROFILE
  0
POLYLINE
  5
892
  8
IV_INTERIOR_PROFILES
 66
     1
 10
0.0
 20
0.0
 30
0.0
 70
   129
  0
VERTEX
  5
7BD9
  8
IV_INTERIOR_PROFILES
 10
6.9500000000000428
 20
-34.624999999999901
 30
0.0
 42
1.0
  0
VERTEX
  5
7BDA
  8
IV_INTERIOR_PROFILES
 10
12.0
 20
-34.624999999999901
 30
0.0
 42
1.0
  0
SEQEND
  5
7BDB
  8
IV_INTERIOR_PROFILES
  0
POLYLINE
  5
893
  8
IV_INTERIOR_PROFILES
 66
     1
 10
0.0
 20
0.0
 30
0.0
 70
   129
  0
VERTEX
  5
7BDC
  8
IV_INTERIOR_PROFILES
 10
18.450000000000038
 20
-34.624999999999901
 30
0.0
 42
1.0
  0
VERTEX
  5
7BDD
  8
IV_INTERIOR_PROFILES
 10
23.5
 20
-34.624999999999901
 30
0.0
 42
1.0
  0
SEQEND
  5
7BDE
  8
IV_INTERIOR_PROFILES
  0
POLYLINE
  5
894
  8
IV_INTERIOR_PROFILES
 66
     1
 10
0.0
 20
0.0
 30
0.0
 70
   129
  0
VERTEX
  5
7BDF
  8
IV_INTERIOR_PROFILES
 10
43.198936918391361
 20
-34.624999999999901
 30
0.0
 42
1.0
  0
VERTEX
  5
7BE0
  8
IV_INTERIOR_PROFILES
 10
48.248936918391323
 20
-34.624999999999901
 30
0.0
 42
1.0
  0
SEQEND
  5
7BE1
  8
IV_INTERIOR_PROFILES
  0
POLYLINE
  5
895
  8
IV_INTERIOR_PROFILES
 66
     1
 10
0.0
 20
0.0
 30
0.0
 70
   129
  0
VERTEX
  5
7BE2
  8
IV_INTERIOR_PROFILES
 10
43.198936918391361
 20
-134.62499999999969
 30
0.0
 42
1.0
  0
VERTEX
  5
7BE3
  8
IV_INTERIOR_PROFILES
 10
48.248936918391323
 20
-134.62499999999969
 30
0.0
 42
1.0
  0
SEQEND
  5
7BE4
  8
IV_INTERIOR_PROFILES
  0
POLYLINE
  5
896
  8
IV_INTERIOR_PROFILES
 66
     1
 10
0.0
 20
0.0
 30
0.0
 70
   129
  0
VERTEX
  5
7BE5
  8
IV_INTERIOR_PROFILES
 10
43.198936918391361
 20
-269.12499999999972
 30
0.0
 42
1.0
  0
VERTEX
  5
7BE6
  8
IV_INTERIOR_PROFILES
 10
48.248936918391323
 20
-269.12499999999972
 30
0.0
 42
1.0
  0
SEQEND
  5
7BE7
  8
IV_INTERIOR_PROFILES
  0
POLYLINE
  5
897
  8
IV_INTERIOR_PROFILES
 66
     1
 10
0.0
 20
0.0
 30
0.0
 70
   129
  0
VERTEX
  5
7BE8
  8
IV_INTERIOR_PROFILES
 10
18.450000000000038
 20
-284.12499999999972
 30
0.0
 42
1.0
  0
VERTEX
  5
7BE9
  8
IV_INTERIOR_PROFILES
 10
23.5
 20
-284.12499999999972
 30
0.0
 42
1.0
  0
SEQEND
  5
7BEA
  8
IV_INTERIOR_PROFILES
  0
POLYLINE
  5
898
  8
IV_INTERIOR_PROFILES
 66
     1
 10
0.0
 20
0.0
 30
0.0
 70
   129
  0
VERTEX
  5
7BEB
  8
IV_INTERIOR_PROFILES
 10
6.9500000000000428
 20
-284.12499999999972
 30
0.0
 42
1.0
  0
VERTEX
  5
7BEC
  8
IV_INTERIOR_PROFILES
 10
12.0
 20
-284.12499999999972
 30
0.0
 42
1.0
  0
SEQEND
  5
7BED
  8
IV_INTERIOR_PROFILES
  0
POLYLINE
  5
899
  8
IV_INTERIOR_PROFILES
 66
     1
 10
0.0
 20
0.0
 30
0.0
 70
   129
  0
VERTEX
  5
7BEE
  8
IV_INTERIOR_PROFILES
 10
66.950000000000045
 20
-284.12499999999972
 30
0.0
 42
1.0
  0
VERTEX
  5
7BEF
  8
IV_INTERIOR_PROFILES
 10
72.0
 20
-284.12499999999972
 30
0.0
 42
1.0
  0
SEQEND
  5
7BF0
  8
IV_INTERIOR_PROFILES
  0
POLYLINE
  5
89A
  8
IV_INTERIOR_PROFILES
 66
     1
 10
0.0
 20
0.0
 30
0.0
 70
   129
  0
VERTEX
  5
7BF1
  8
IV_INTERIOR_PROFILES
 10
78.450000000000031
 20
-284.12499999999972
 30
0.0
 42
1.0
  0
VERTEX
  5
7BF2
  8
IV_INTERIOR_PROFILES
 10
83.499999999999986
 20
-284.12499999999972
 30
0.0
 42
1.0
  0
SEQEND
  5
7BF3
  8
IV_INTERIOR_PROFILES
  0
POLYLINE
  5
89B
  8
IV_INTERIOR_PROFILES
 66
     1
 10
0.0
 20
0.0
 30
0.0
 70
   129
  0
VERTEX
  5
7BF4
  8
IV_INTERIOR_PROFILES
 10
126.95
 20
-284.12499999999972
 30
0.0
 42
1.0
  0
VERTEX
  5
7BF5
  8
IV_INTERIOR_PROFILES
 10
132.0
 20
-284.12499999999972
 30
0.0
 42
1.0
  0
SEQEND
  5
7BF6
  8
IV_INTERIOR_PROFILES
  0
POLYLINE
  5
89C
  8
IV_INTERIOR_PROFILES
 66
     1
 10
0.0
 20
0.0
 30
0.0
 70
   129
  0
VERTEX
  5
7BF7
  8
IV_INTERIOR_PROFILES
 10
138.44999999999999
 20
-284.12499999999972
 30
0.0
 42
1.0
  0
VERTEX
  5
7BF8
  8
IV_INTERIOR_PROFILES
 10
143.5
 20
-284.12499999999972
 30
0.0
 42
1.0
  0
SEQEND
  5
7BF9
  8
IV_INTERIOR_PROFILES
  0
POLYLINE
  5
89D
  8
IV_INTERIOR_PROFILES
 66
     1
 10
0.0
 20
0.0
 30
0.0
 70
   129
  0
VERTEX
  5
7BFA
  8
IV_INTERIOR_PROFILES
 10
186.94999999999999
 20
-284.12499999999972
 30
0.0
 42
1.0
  0
VERTEX
  5
7BFB
  8
IV_INTERIOR_PROFILES
 10
192.0000000000002
 20
-284.12499999999972
 30
0.0
 42
1.0
  0
SEQEND
  5
7BFC
  8
IV_INTERIOR_PROFILES
  0
POLYLINE
  5
89E
  8
IV_INTERIOR_PROFILES
 66
     1
 10
0.0
 20
0.0
 30
0.0
 70
   129
  0
VERTEX
  5
7BFD
  8
IV_INTERIOR_PROFILES
 10
198.44999999999999
 20
-284.12499999999972
 30
0.0
 42
1.0
  0
VERTEX
  5
7BFE
  8
IV_INTERIOR_PROFILES
 10
203.5000000000002
 20
-284.12499999999972
 30
0.0
 42
1.0
  0
SEQEND
  5
7BFF
  8
IV_INTERIOR_PROFILES
  0
POLYLINE
  5
89F
  8
IV_INTERIOR_PROFILES
 66
     1
 10
0.0
 20
0.0
 30
0.0
 70
   129
  0
VERTEX
  5
7C00
  8
IV_INTERIOR_PROFILES
 10
222.69999999999999
 20
-269.12499999999972
 30
0.0
 42
1.0
  0
VERTEX
  5
7C01
  8
IV_INTERIOR_PROFILES
 10
227.7500000000002
 20
-269.12499999999972
 30
0.0
 42
1.0
  0
SEQEND
  5
7C02
  8
IV_INTERIOR_PROFILES
  0
POLYLINE
  5
8A0
  8
IV_INTERIOR_PROFILES
 66
     1
 10
0.0
 20
0.0
 30
0.0
 70
   129
  0
VERTEX
  5
7C03
  8
IV_INTERIOR_PROFILES
 10
222.69999999999999
 20
-134.62499999999969
 30
0.0
 42
1.0
  0
VERTEX
  5
7C04
  8
IV_INTERIOR_PROFILES
 10
227.7500000000002
 20
-134.62499999999969
 30
0.0
 42
1.0
  0
SEQEND
  5
7C05
  8
IV_INTERIOR_PROFILES
  0
POLYLINE
  5
8A1
  8
IV_INTERIOR_PROFILES
 66
     1
 10
0.0
 20
0.0
 30
0.0
 70
   129
  0
VERTEX
  5
7C06
  8
IV_INTERIOR_PROFILES
 10
222.69999999999999
 20
-34.624999999999901
 30
0.0
 42
1.0
  0
VERTEX
  5
7C07
  8
IV_INTERIOR_PROFILES
 10
227.7500000000002
 20
-34.624999999999901
 30
0.0
 42
1.0
  0
SEQEND
  5
7C08
  8
IV_INTERIOR_PROFILES
  0
POLYLINE
  5
8A2
  8
IV_INTERIOR_PROFILES
 66
     1
 10
0.0
 20
0.0
 30
0.0
 70
   129
  0
VERTEX
  5
7C09
  8
IV_INTERIOR_PROFILES
 10
246.94999999999999
 20
-284.12499999999972
 30
0.0
 42
1.0
  0
VERTEX
  5
7C0A
  8
IV_INTERIOR_PROFILES
 10
252.0000000000002
 20
-284.12499999999972
 30
0.0
 42
1.0
  0
SEQEND
  5
7C0B
  8
IV_INTERIOR_PROFILES
  0
POLYLINE
  5
8A3
  8
IV_INTERIOR_PROFILES
 66
     1
 10
0.0
 20
0.0
 30
0.0
 70
   129
  0
VERTEX
  5
7C0C
  8
IV_INTERIOR_PROFILES
 10
258.4500000000001
 20
-284.12499999999972
 30
0.0
 42
1.0
  0
VERTEX
  5
7C0D
  8
IV_INTERIOR_PROFILES
 10
263.5
 20
-284.12499999999972
 30
0.0
 42
1.0
  0
SEQEND
  5
7C0E
  8
IV_INTERIOR_PROFILES
  0
POLYLINE
  5
8A4
  8
IV_INTERIOR_PROFILES
 66
     1
 10
0.0
 20
0.0
 30
0.0
 70
   129
  0
VERTEX
  5
7C0F
  8
IV_INTERIOR_PROFILES
 10
306.9500000000001
 20
-284.12499999999972
 30
0.0
 42
1.0
  0
VERTEX
  5
7C10
  8
IV_INTERIOR_PROFILES
 10
312.0
 20
-284.12499999999972
 30
0.0
 42
1.0
  0
SEQEND
  5
7C11
  8
IV_INTERIOR_PROFILES
  0
POLYLINE
  5
8A5
  8
IV_INTERIOR_PROFILES
 66
     1
 10
0.0
 20
0.0
 30
0.0
 70
   129
  0
VERTEX
  5
7C12
  8
IV_INTERIOR_PROFILES
 10
318.44999999999999
 20
-284.12499999999972
 30
0.0
 42
1.0
  0
VERTEX
  5
7C13
  8
IV_INTERIOR_PROFILES
 10
323.5
 20
-284.12499999999972
 30
0.0
 42
1.0
  0
SEQEND
  5
7C14
  8
IV_INTERIOR_PROFILES
  0
POLYLINE
  5
8A6
  8
IV_INTERIOR_PROFILES
 66
     1
 10
0.0
 20
0.0
 30
0.0
 70
   129
  0
VERTEX
  5
7C15
  8
IV_INTERIOR_PROFILES
 10
366.9500000000001
 20
-284.12499999999972
 30
0.0
 42
1.0
  0
VERTEX
  5
7C16
  8
IV_INTERIOR_PROFILES
 10
372.0
 20
-284.12499999999972
 30
0.0
 42
1.0
  0
SEQEND
  5
7C17
  8
IV_INTERIOR_PROFILES
  0
POLYLINE
  5
8A7
  8
IV_INTERIOR_PROFILES
 66
     1
 10
0.0
 20
0.0
 30
0.0
 70
   129
  0
VERTEX
  5
7C18
  8
IV_INTERIOR_PROFILES
 10
378.44999999999999
 20
-284.12499999999972
 30
0.0
 42
1.0
  0
VERTEX
  5
7C19
  8
IV_INTERIOR_PROFILES
 10
383.5
 20
-284.12499999999972
 30
0.0
 42
1.0
  0
SEQEND
  5
7C1A
  8
IV_INTERIOR_PROFILES
  0
POLYLINE
  5
8A8
  8
IV_INTERIOR_PROFILES
 66
     1
 10
0.0
 20
0.0
 30
0.0
 70
   129
  0
VERTEX
  5
7C1B
  8
IV_INTERIOR_PROFILES
 10
402.20106308160871
 20
-269.12499999999972
 30
0.0
 42
1.0
  0
VERTEX
  5
7C1C
  8
IV_INTERIOR_PROFILES
 10
407.25106308160861
 20
-269.12499999999972
 30
0.0
 42
1.0
  0
SEQEND
  5
7C1D
  8
IV_INTERIOR_PROFILES
  0
POLYLINE
  5
8A9
  8
IV_INTERIOR_PROFILES
 66
     1
 10
0.0
 20
0.0
 30
0.0
 70
   129
  0
VERTEX
  5
7C1E
  8
IV_INTERIOR_PROFILES
 10
402.20106308160871
 20
-134.62499999999969
 30
0.0
 42
1.0
  0
VERTEX
  5
7C1F
  8
IV_INTERIOR_PROFILES
 10
407.25106308160861
 20
-134.62499999999969
 30
0.0
 42
1.0
  0
SEQEND
  5
7C20
  8
IV_INTERIOR_PROFILES
  0
POLYLINE
  5
8AA
  8
IV_INTERIOR_PROFILES
 66
     1
 10
0.0
 20
0.0
 30
0.0
 70
   129
  0
VERTEX
  5
7C21
  8
IV_INTERIOR_PROFILES
 10
402.20106308160871
 20
-34.624999999999901
 30
0.0
 42
1.0
  0
VERTEX
  5
7C22
  8
IV_INTERIOR_PROFILES
 10
407.25106308160861
 20
-34.624999999999901
 30
0.0
 42
1.0
  0
SEQEND
  5
7C23
  8
IV_INTERIOR_PROFILES
  0
POLYLINE
  5
8AB
  8
IV_INTERIOR_PROFILES
 66
     1
 10
0.0
 20
0.0
 30
0.0
 70
   129
  0
VERTEX
  5
7C24
  8
IV_INTERIOR_PROFILES
 10
426.94999999999987
 20
-34.624999999999901
 30
0.0
 42
1.0
  0
VERTEX
  5
7C25
  8
IV_INTERIOR_PROFILES
 10
432.0
 20
-34.624999999999901
 30
0.0
 42
1.0
  0
SEQEND
  5
7C26
  8
IV_INTERIOR_PROFILES
  0
POLYLINE
  5
8AC
  8
IV_INTERIOR_PROFILES
 66
     1
 10
0.0
 20
0.0
 30
0.0
 70
   129
  0
VERTEX
  5
7C27
  8
IV_INTERIOR_PROFILES
 10
438.44999999999999
 20
-34.624999999999901
 30
0.0
 42
1.0
  0
VERTEX
  5
7C28
  8
IV_INTERIOR_PROFILES
 10
443.5
 20
-34.624999999999901
 30
0.0
 42
1.0
  0
SEQEND
  5
7C29
  8
IV_INTERIOR_PROFILES
  0
POLYLINE
  5
8AD
  8
IV_INTERIOR_PROFILES
 66
     1
 10
0.0
 20
0.0
 30
0.0
 70
   129
  0
VERTEX
  5
7C2A
  8
IV_INTERIOR_PROFILES
 10
426.94999999999987
 20
-284.12499999999972
 30
0.0
 42
1.0
  0
VERTEX
  5
7C2B
  8
IV_INTERIOR_PROFILES
 10
432.0
 20
-284.12499999999972
 30
0.0
 42
1.0
  0
SEQEND
  5
7C2C
  8
IV_INTERIOR_PROFILES
  0
POLYLINE
  5
8AE
  8
IV_INTERIOR_PROFILES
 66
     1
 10
0.0
 20
0.0
 30
0.0
 70
   129
  0
VERTEX
  5
7C2D
  8
IV_INTERIOR_PROFILES
 10
438.44999999999999
 20
-284.12499999999972
 30
0.0
 42
1.0
  0
VERTEX
  5
7C2E
  8
IV_INTERIOR_PROFILES
 10
443.5
 20
-284.12499999999972
 30
0.0
 42
1.0
  0
SEQEND
  5
7C2F
  8
IV_INTERIOR_PROFILES
  0
ENDBLK
  5
890
  8
0
  0
BLOCK
  8
0
  2
X-ALUS-2
 70
     0
 10
0.0
 20
0.0
 30
0.0
  3
X-ALUS-2
  1

  0
POLYLINE
  5
8F5
  8
IV_OUTER_PROFILE
 66
     1
 10
0.0
 20
0.0
 30
0.0
 70
   129
  0
VERTEX
  5
7C30
  8
IV_OUTER_PROFILE
 10
337.85000000000019
 20
0.0000000000003411
 30
0.0
  0
VERTEX
  5
7C31
  8
IV_OUTER_PROFILE
 10
450.44999999999987
 20
-0.0000000000001137
 30
0.0
  0
VERTEX
  5
7C32
  8
IV_OUTER_PROFILE
 10
450.44999999999987
 20
-294.34999999999991
 30
0.0
  0
VERTEX
  5
7C33
  8
IV_OUTER_PROFILE
 10
417.45106308160848
 20
-294.34999999999991
 30
0.0
  0
VERTEX
  5
7C34
  8
IV_OUTER_PROFILE
 10
417.45106308160848
 20
-300.34999999999991
 30
0.0
  0
VERTEX
  5
7C35
  8
IV_OUTER_PROFILE
 10
392.00106308160838
 20
-300.34999999999991
 30
0.0
  0
VERTEX
  5
7C36
  8
IV_OUTER_PROFILE
 10
392.00106308160838
 20
-294.34999999999991
 30
0.0
  0
VERTEX
  5
7C37
  8
IV_OUTER_PROFILE
 10
58.448936918391141
 20
-294.34999999999991
 30
0.0
  0
VERTEX
  5
7C38
  8
IV_OUTER_PROFILE
 10
58.448936918391141
 20
-300.34999999999991
 30
0.0
  0
VERTEX
  5
7C39
  8
IV_OUTER_PROFILE
 10
32.998936918391109
 20
-300.34999999999991
 30
0.0
  0
VERTEX
  5
7C3A
  8
IV_OUTER_PROFILE
 10
32.998936918391109
 20
-294.34999999999991
 30
0.0
  0
VERTEX
  5
7C3B
  8
IV_OUTER_PROFILE
 10
0.0
 20
-294.34999999999991
 30
0.0
  0
VERTEX
  5
7C3C
  8
IV_OUTER_PROFILE
 10
0.0
 20
-0.0000000000001137
 30
0.0
  0
VERTEX
  5
7C3D
  8
IV_OUTER_PROFILE
 10
112.8499999999998
 20
0.0000000000003411
 30
0.0
  0
VERTEX
  5
7C3E
  8
IV_OUTER_PROFILE
 10
112.8499999999998
 20
-5.9999999999997691
 30
0.0
  0
VERTEX
  5
7C3F
  8
IV_OUTER_PROFILE
 10
225.09999999999991
 20
-5.9999999999996572
 30
0.0
  0
VERTEX
  5
7C40
  8
IV_OUTER_PROFILE
 10
225.09999999999971
 20
6.0000000000003411
 30
0.0
  0
VERTEX
  5
7C41
  8
IV_OUTER_PROFILE
 10
337.85000000000019
 20
6.0000000000003411
 30
0.0
  0
SEQEND
  5
7C42
  8
IV_OUTER_PROFILE
  0
POLYLINE
  5
8F6
  8
IV_INTERIOR_PROFILES
 66
     1
 10
0.0
 20
0.0
 30
0.0
 70
   129
  0
VERTEX
  5
7C43
  8
IV_INTERIOR_PROFILES
 10
6.9499999999998172
 20
-34.624999999999773
 30
0.0
 42
1.0
  0
VERTEX
  5
7C44
  8
IV_INTERIOR_PROFILES
 10
11.999999999999771
 20
-34.624999999999773
 30
0.0
 42
1.0
  0
SEQEND
  5
7C45
  8
IV_INTERIOR_PROFILES
  0
POLYLINE
  5
8F7
  8
IV_INTERIOR_PROFILES
 66
     1
 10
0.0
 20
0.0
 30
0.0
 70
   129
  0
VERTEX
  5
7C46
  8
IV_INTERIOR_PROFILES
 10
18.450000000000038
 20
-34.624999999999773
 30
0.0
 42
1.0
  0
VERTEX
  5
7C47
  8
IV_INTERIOR_PROFILES
 10
23.5
 20
-34.624999999999773
 30
0.0
 42
1.0
  0
SEQEND
  5
7C48
  8
IV_INTERIOR_PROFILES
  0
POLYLINE
  5
8F8
  8
IV_INTERIOR_PROFILES
 66
     1
 10
0.0
 20
0.0
 30
0.0
 70
   129
  0
VERTEX
  5
7C49
  8
IV_INTERIOR_PROFILES
 10
43.198936918391148
 20
-34.624999999999773
 30
0.0
 42
1.0
  0
VERTEX
  5
7C4A
  8
IV_INTERIOR_PROFILES
 10
48.248936918391109
 20
-34.624999999999773
 30
0.0
 42
1.0
  0
SEQEND
  5
7C4B
  8
IV_INTERIOR_PROFILES
  0
POLYLINE
  5
8F9
  8
IV_INTERIOR_PROFILES
 66
     1
 10
0.0
 20
0.0
 30
0.0
 70
   129
  0
VERTEX
  5
7C4C
  8
IV_INTERIOR_PROFILES
 10
43.198936918391148
 20
-134.62499999999969
 30
0.0
 42
1.0
  0
VERTEX
  5
7C4D
  8
IV_INTERIOR_PROFILES
 10
48.248936918391109
 20
-134.62499999999969
 30
0.0
 42
1.0
  0
SEQEND
  5
7C4E
  8
IV_INTERIOR_PROFILES
  0
POLYLINE
  5
8FA
  8
IV_INTERIOR_PROFILES
 66
     1
 10
0.0
 20
0.0
 30
0.0
 70
   129
  0
VERTEX
  5
7C4F
  8
IV_INTERIOR_PROFILES
 10
43.198936918391148
 20
-269.12499999999972
 30
0.0
 42
1.0
  0
VERTEX
  5
7C50
  8
IV_INTERIOR_PROFILES
 10
48.248936918391109
 20
-269.12499999999972
 30
0.0
 42
1.0
  0
SEQEND
  5
7C51
  8
IV_INTERIOR_PROFILES
  0
POLYLINE
  5
8FB
  8
IV_INTERIOR_PROFILES
 66
     1
 10
0.0
 20
0.0
 30
0.0
 70
   129
  0
VERTEX
  5
7C52
  8
IV_INTERIOR_PROFILES
 10
18.450000000000038
 20
-284.12499999999972
 30
0.0
 42
1.0
  0
VERTEX
  5
7C53
  8
IV_INTERIOR_PROFILES
 10
23.5
 20
-284.12499999999972
 30
0.0
 42
1.0
  0
SEQEND
  5
7C54
  8
IV_INTERIOR_PROFILES
  0
POLYLINE
  5
8FC
  8
IV_INTERIOR_PROFILES
 66
     1
 10
0.0
 20
0.0
 30
0.0
 70
   129
  0
VERTEX
  5
7C55
  8
IV_INTERIOR_PROFILES
 10
6.9499999999998172
 20
-284.12499999999972
 30
0.0
 42
1.0
  0
VERTEX
  5
7C56
  8
IV_INTERIOR_PROFILES
 10
11.999999999999771
 20
-284.12499999999972
 30
0.0
 42
1.0
  0
SEQEND
  5
7C57
  8
IV_INTERIOR_PROFILES
  0
POLYLINE
  5
8FD
  8
IV_INTERIOR_PROFILES
 66
     1
 10
0.0
 20
0.0
 30
0.0
 70
   129
  0
VERTEX
  5
7C58
  8
IV_INTERIOR_PROFILES
 10
66.949999999999818
 20
-284.12499999999972
 30
0.0
 42
1.0
  0
VERTEX
  5
7C59
  8
IV_INTERIOR_PROFILES
 10
71.999999999999758
 20
-284.12499999999972
 30
0.0
 42
1.0
  0
SEQEND
  5
7C5A
  8
IV_INTERIOR_PROFILES
  0
POLYLINE
  5
8FE
  8
IV_INTERIOR_PROFILES
 66
     1
 10
0.0
 20
0.0
 30
0.0
 70
   129
  0
VERTEX
  5
7C5B
  8
IV_INTERIOR_PROFILES
 10
78.449999999999804
 20
-284.12499999999972
 30
0.0
 42
1.0
  0
VERTEX
  5
7C5C
  8
IV_INTERIOR_PROFILES
 10
83.499999999999986
 20
-284.12499999999972
 30
0.0
 42
1.0
  0
SEQEND
  5
7C5D
  8
IV_INTERIOR_PROFILES
  0
POLYLINE
  5
8FF
  8
IV_INTERIOR_PROFILES
 66
     1
 10
0.0
 20
0.0
 30
0.0
 70
   129
  0
VERTEX
  5
7C5E
  8
IV_INTERIOR_PROFILES
 10
126.95
 20
-284.12499999999972
 30
0.0
 42
1.0
  0
VERTEX
  5
7C5F
  8
IV_INTERIOR_PROFILES
 10
132.0
 20
-284.12499999999972
 30
0.0
 42
1.0
  0
SEQEND
  5
7C60
  8
IV_INTERIOR_PROFILES
  0
POLYLINE
  5
900
  8
IV_INTERIOR_PROFILES
 66
     1
 10
0.0
 20
0.0
 30
0.0
 70
   129
  0
VERTEX
  5
7C61
  8
IV_INTERIOR_PROFILES
 10
138.44999999999979
 20
-284.12499999999972
 30
0.0
 42
1.0
  0
VERTEX
  5
7C62
  8
IV_INTERIOR_PROFILES
 10
143.4999999999998
 20
-284.12499999999972
 30
0.0
 42
1.0
  0
SEQEND
  5
7C63
  8
IV_INTERIOR_PROFILES
  0
POLYLINE
  5
901
  8
IV_INTERIOR_PROFILES
 66
     1
 10
0.0
 20
0.0
 30
0.0
 70
   129
  0
VERTEX
  5
7C64
  8
IV_INTERIOR_PROFILES
 10
186.9499999999997
 20
-284.12499999999972
 30
0.0
 42
1.0
  0
VERTEX
  5
7C65
  8
IV_INTERIOR_PROFILES
 10
192.0
 20
-284.12499999999972
 30
0.0
 42
1.0
  0
SEQEND
  5
7C66
  8
IV_INTERIOR_PROFILES
  0
POLYLINE
  5
902
  8
IV_INTERIOR_PROFILES
 66
     1
 10
0.0
 20
0.0
 30
0.0
 70
   129
  0
VERTEX
  5
7C67
  8
IV_INTERIOR_PROFILES
 10
198.44999999999999
 20
-284.12499999999972
 30
0.0
 42
1.0
  0
VERTEX
  5
7C68
  8
IV_INTERIOR_PROFILES
 10
203.5
 20
-284.12499999999972
 30
0.0
 42
1.0
  0
SEQEND
  5
7C69
  8
IV_INTERIOR_PROFILES
  0
POLYLINE
  5
903
  8
IV_INTERIOR_PROFILES
 66
     1
 10
0.0
 20
0.0
 30
0.0
 70
   129
  0
VERTEX
  5
7C6A
  8
IV_INTERIOR_PROFILES
 10
222.6999999999997
 20
-269.12499999999972
 30
0.0
 42
1.0
  0
VERTEX
  5
7C6B
  8
IV_INTERIOR_PROFILES
 10
227.75
 20
-269.12499999999972
 30
0.0
 42
1.0
  0
SEQEND
  5
7C6C
  8
IV_INTERIOR_PROFILES
  0
POLYLINE
  5
904
  8
IV_INTERIOR_PROFILES
 66
     1
 10
0.0
 20
0.0
 30
0.0
 70
   129
  0
VERTEX
  5
7C6D
  8
IV_INTERIOR_PROFILES
 10
222.6999999999997
 20
-134.62499999999969
 30
0.0
 42
1.0
  0
VERTEX
  5
7C6E
  8
IV_INTERIOR_PROFILES
 10
227.75
 20
-134.62499999999969
 30
0.0
 42
1.0
  0
SEQEND
  5
7C6F
  8
IV_INTERIOR_PROFILES
  0
POLYLINE
  5
905
  8
IV_INTERIOR_PROFILES
 66
     1
 10
0.0
 20
0.0
 30
0.0
 70
   129
  0
VERTEX
  5
7C70
  8
IV_INTERIOR_PROFILES
 10
222.6999999999997
 20
-34.624999999999773
 30
0.0
 42
1.0
  0
VERTEX
  5
7C71
  8
IV_INTERIOR_PROFILES
 10
227.75
 20
-34.624999999999773
 30
0.0
 42
1.0
  0
SEQEND
  5
7C72
  8
IV_INTERIOR_PROFILES
  0
POLYLINE
  5
906
  8
IV_INTERIOR_PROFILES
 66
     1
 10
0.0
 20
0.0
 30
0.0
 70
   129
  0
VERTEX
  5
7C73
  8
IV_INTERIOR_PROFILES
 10
246.94999999999999
 20
-284.12499999999972
 30
0.0
 42
1.0
  0
VERTEX
  5
7C74
  8
IV_INTERIOR_PROFILES
 10
252.0
 20
-284.12499999999972
 30
0.0
 42
1.0
  0
SEQEND
  5
7C75
  8
IV_INTERIOR_PROFILES
  0
POLYLINE
  5
907
  8
IV_INTERIOR_PROFILES
 66
     1
 10
0.0
 20
0.0
 30
0.0
 70
   129
  0
VERTEX
  5
7C76
  8
IV_INTERIOR_PROFILES
 10
258.44999999999987
 20
-284.12499999999972
 30
0.0
 42
1.0
  0
VERTEX
  5
7C77
  8
IV_INTERIOR_PROFILES
 10
263.49999999999972
 20
-284.12499999999972
 30
0.0
 42
1.0
  0
SEQEND
  5
7C78
  8
IV_INTERIOR_PROFILES
  0
POLYLINE
  5
908
  8
IV_INTERIOR_PROFILES
 66
     1
 10
0.0
 20
0.0
 30
0.0
 70
   129
  0
VERTEX
  5
7C79
  8
IV_INTERIOR_PROFILES
 10
306.9500000000001
 20
-284.12499999999972
 30
0.0
 42
1.0
  0
VERTEX
  5
7C7A
  8
IV_INTERIOR_PROFILES
 10
312.0
 20
-284.12499999999972
 30
0.0
 42
1.0
  0
SEQEND
  5
7C7B
  8
IV_INTERIOR_PROFILES
  0
POLYLINE
  5
909
  8
IV_INTERIOR_PROFILES
 66
     1
 10
0.0
 20
0.0
 30
0.0
 70
   129
  0
VERTEX
  5
7C7C
  8
IV_INTERIOR_PROFILES
 10
318.44999999999982
 20
-284.12499999999972
 30
0.0
 42
1.0
  0
VERTEX
  5
7C7D
  8
IV_INTERIOR_PROFILES
 10
323.49999999999972
 20
-284.12499999999972
 30
0.0
 42
1.0
  0
SEQEND
  5
7C7E
  8
IV_INTERIOR_PROFILES
  0
POLYLINE
  5
90A
  8
IV_INTERIOR_PROFILES
 66
     1
 10
0.0
 20
0.0
 30
0.0
 70
   129
  0
VERTEX
  5
7C7F
  8
IV_INTERIOR_PROFILES
 10
366.94999999999987
 20
-284.12499999999972
 30
0.0
 42
1.0
  0
VERTEX
  5
7C80
  8
IV_INTERIOR_PROFILES
 10
372.0
 20
-284.12499999999972
 30
0.0
 42
1.0
  0
SEQEND
  5
7C81
  8
IV_INTERIOR_PROFILES
  0
POLYLINE
  5
90B
  8
IV_INTERIOR_PROFILES
 66
     1
 10
0.0
 20
0.0
 30
0.0
 70
   129
  0
VERTEX
  5
7C82
  8
IV_INTERIOR_PROFILES
 10
378.44999999999987
 20
-284.12499999999972
 30
0.0
 42
1.0
  0
VERTEX
  5
7C83
  8
IV_INTERIOR_PROFILES
 10
383.49999999999977
 20
-284.12499999999972
 30
0.0
 42
1.0
  0
SEQEND
  5
7C84
  8
IV_INTERIOR_PROFILES
  0
POLYLINE
  5
90C
  8
IV_INTERIOR_PROFILES
 66
     1
 10
0.0
 20
0.0
 30
0.0
 70
   129
  0
VERTEX
  5
7C85
  8
IV_INTERIOR_PROFILES
 10
402.2010630816082
 20
-269.12499999999972
 30
0.0
 42
1.0
  0
VERTEX
  5
7C86
  8
IV_INTERIOR_PROFILES
 10
407.25106308160838
 20
-269.12499999999972
 30
0.0
 42
1.0
  0
SEQEND
  5
7C87
  8
IV_INTERIOR_PROFILES
  0
POLYLINE
  5
90D
  8
IV_INTERIOR_PROFILES
 66
     1
 10
0.0
 20
0.0
 30
0.0
 70
   129
  0
VERTEX
  5
7C88
  8
IV_INTERIOR_PROFILES
 10
402.2010630816082
 20
-134.62499999999969
 30
0.0
 42
1.0
  0
VERTEX
  5
7C89
  8
IV_INTERIOR_PROFILES
 10
407.25106308160838
 20
-134.62499999999969
 30
0.0
 42
1.0
  0
SEQEND
  5
7C8A
  8
IV_INTERIOR_PROFILES
  0
POLYLINE
  5
90E
  8
IV_INTERIOR_PROFILES
 66
     1
 10
0.0
 20
0.0
 30
0.0
 70
   129
  0
VERTEX
  5
7C8B
  8
IV_INTERIOR_PROFILES
 10
402.2010630816082
 20
-34.624999999999773
 30
0.0
 42
1.0
  0
VERTEX
  5
7C8C
  8
IV_INTERIOR_PROFILES
 10
407.25106308160838
 20
-34.624999999999773
 30
0.0
 42
1.0
  0
SEQEND
  5
7C8D
  8
IV_INTERIOR_PROFILES
  0
POLYLINE
  5
90F
  8
IV_INTERIOR_PROFILES
 66
     1
 10
0.0
 20
0.0
 30
0.0
 70
   129
  0
VERTEX
  5
7C8E
  8
IV_INTERIOR_PROFILES
 10
426.94999999999982
 20
-34.624999999999773
 30
0.0
 42
1.0
  0
VERTEX
  5
7C8F
  8
IV_INTERIOR_PROFILES
 10
432.0
 20
-34.624999999999773
 30
0.0
 42
1.0
  0
SEQEND
  5
7C90
  8
IV_INTERIOR_PROFILES
  0
POLYLINE
  5
910
  8
IV_INTERIOR_PROFILES
 66
     1
 10
0.0
 20
0.0
 30
0.0
 70
   129
  0
VERTEX
  5
7C91
  8
IV_INTERIOR_PROFILES
 10
438.44999999999987
 20
-34.624999999999773
 30
0.0
 42
1.0
  0
VERTEX
  5
7C92
  8
IV_INTERIOR_PROFILES
 10
443.4999999999996
 20
-34.624999999999773
 30
0.0
 42
1.0
  0
SEQEND
  5
7C93
  8
IV_INTERIOR_PROFILES
  0
POLYLINE
  5
911
  8
IV_INTERIOR_PROFILES
 66
     1
 10
0.0
 20
0.0
 30
0.0
 70
   129
  0
VERTEX
  5
7C94
  8
IV_INTERIOR_PROFILES
 10
426.94999999999982
 20
-284.12499999999972
 30
0.0
 42
1.0
  0
VERTEX
  5
7C95
  8
IV_INTERIOR_PROFILES
 10
432.0
 20
-284.12499999999972
 30
0.0
 42
1.0
  0
SEQEND
  5
7C96
  8
IV_INTERIOR_PROFILES
  0
POLYLINE
  5
912
  8
IV_INTERIOR_PROFILES
 66
     1
 10
0.0
 20
0.0
 30
0.0
 70
   129
  0
VERTEX
  5
7C97
  8
IV_INTERIOR_PROFILES
 10
438.44999999999987
 20
-284.12499999999972
 30
0.0
 42
1.0
  0
VERTEX
  5
7C98
  8
IV_INTERIOR_PROFILES
 10
443.4999999999996
 20
-284.12499999999972
 30
0.0
 42
1.0
  0
SEQEND
  5
7C99
  8
IV_INTERIOR_PROFILES
  0
ENDBLK
  5
8F4
  8
0
  0
BLOCK
  8
0
  2
NEMA17-EXSTRAPLATE
 70
     0
 10
0.0
 20
0.0
 30
0.0
  3
NEMA17-EXSTRAPLATE
  1

  0
POLYLINE
  5
935
  8
IV_OUTER_PROFILE
 66
     1
 10
0.0
 20
0.0
 30
0.0
 70
   129
  0
VERTEX
  5
7C9A
  8
IV_OUTER_PROFILE
 10
-28.875000000000231
 20
24.650000000000031
 30
0.0
 42
-0.4142135623730951
  0
VERTEX
  5
7C9B
  8
IV_OUTER_PROFILE
 10
-24.650000000000318
 20
28.87500000000006
 30
0.0
  0
VERTEX
  5
7C9C
  8
IV_OUTER_PROFILE
 10
24.64999999999986
 20
28.87500000000006
 30
0.0
 42
-0.4142135623730962
  0
VERTEX
  5
7C9D
  8
IV_OUTER_PROFILE
 10
28.875
 20
24.650000000000031
 30
0.0
  0
VERTEX
  5
7C9E
  8
IV_OUTER_PROFILE
 10
28.875
 20
-24.650000000000151
 30
0.0
 42
-0.4142135623730959
  0
VERTEX
  5
7C9F
  8
IV_OUTER_PROFILE
 10
24.64999999999986
 20
-28.875000000000139
 30
0.0
  0
VERTEX
  5
7CA0
  8
IV_OUTER_PROFILE
 10
-24.650000000000318
 20
-28.875000000000139
 30
0.0
 42
-0.4142135623730951
  0
VERTEX
  5
7CA1
  8
IV_OUTER_PROFILE
 10
-28.875000000000231
 20
-24.650000000000151
 30
0.0
  0
SEQEND
  5
7CA2
  8
IV_OUTER_PROFILE
  0
POLYLINE
  5
936
  8
IV_INTERIOR_PROFILES
 66
     1
 10
0.0
 20
0.0
 30
0.0
 70
   129
  0
VERTEX
  5
7CA3
  8
IV_INTERIOR_PROFILES
 10
-23.751897988505789
 20
2.7537930979605392
 30
0.0
 42
-0.1070604202225985
  0
VERTEX
  5
7CA4
  8
IV_INTERIOR_PROFILES
 10
-25.500149936868858
 20
2.3749999952671881
 30
0.0
 42
0.9999368706814314
  0
VERTEX
  5
7CA5
  8
IV_INTERIOR_PROFILES
 10
-25.500149936868858
 20
-2.374999995267101
 30
0.0
 42
-0.1070604202225985
  0
VERTEX
  5
7CA6
  8
IV_INTERIOR_PROFILES
 10
-23.75189798850602
 20
-2.7537930979605671
 30
0.0
 42
1.5530934374384111
  0
SEQEND
  5
7CA7
  8
IV_INTERIOR_PROFILES
  0
POLYLINE
  5
937
  8
IV_INTERIOR_PROFILES
 66
     1
 10
0.0
 20
0.0
 30
0.0
 70
   129
  0
VERTEX
  5
7CA8
  8
IV_INTERIOR_PROFILES
 10
25.500149936868411
 20
2.3749999952671601
 30
0.0
 42
-0.1070604202225976
  0
VERTEX
  5
7CA9
  8
IV_INTERIOR_PROFILES
 10
23.751897988505561
 20
2.7537930979605392
 30
0.0
 42
1.5530934374384151
  0
VERTEX
  5
7CAA
  8
IV_INTERIOR_PROFILES
 10
23.751897988505561
 20
-2.7537930979605671
 30
0.0
 42
-0.1070604202225988
  0
VERTEX
  5
7CAB
  8
IV_INTERIOR_PROFILES
 10
25.500149936868642
 20
-2.374999995267101
 30
0.0
 42
0.9999368706814314
  0
SEQEND
  5
7CAC
  8
IV_INTERIOR_PROFILES
  0
POLYLINE
  5
938
  8
IV_INTERIOR_PROFILES
 66
     1
 10
0.0
 20
0.0
 30
0.0
 70
   129
  0
VERTEX
  5
7CAD
  8
IV_INTERIOR_PROFILES
 10
-26.025000000000091
 20
23.49999999999994
 30
0.0
 42
1.0
  0
VERTEX
  5
7CAE
  8
IV_INTERIOR_PROFILES
 10
-20.97500000000014
 20
23.49999999999994
 30
0.0
 42
1.0
  0
SEQEND
  5
7CAF
  8
IV_INTERIOR_PROFILES
  0
POLYLINE
  5
939
  8
IV_INTERIOR_PROFILES
 66
     1
 10
0.0
 20
0.0
 30
0.0
 70
   129
  0
VERTEX
  5
7CB0
  8
IV_INTERIOR_PROFILES
 10
-17.025000000000091
 20
15.49999999999994
 30
0.0
 42
1.0
  0
VERTEX
  5
7CB1
  8
IV_INTERIOR_PROFILES
 10
-13.97500000000012
 20
15.49999999999994
 30
0.0
 42
1.0
  0
SEQEND
  5
7CB2
  8
IV_INTERIOR_PROFILES
  0
POLYLINE
  5
93A
  8
IV_INTERIOR_PROFILES
 66
     1
 10
0.0
 20
0.0
 30
0.0
 70
   129
  0
VERTEX
  5
7CB3
  8
IV_INTERIOR_PROFILES
 10
-12.275000000000089
 20
-0.0000000000000568
 30
0.0
 42
1.0
  0
VERTEX
  5
7CB4
  8
IV_INTERIOR_PROFILES
 10
12.27499999999986
 20
-0.0000000000000568
 30
0.0
 42
1.0
  0
SEQEND
  5
7CB5
  8
IV_INTERIOR_PROFILES
  0
POLYLINE
  5
93B
  8
IV_INTERIOR_PROFILES
 66
     1
 10
0.0
 20
0.0
 30
0.0
 70
   129
  0
VERTEX
  5
7CB6
  8
IV_INTERIOR_PROFILES
 10
-17.025000000000091
 20
-15.50000000000006
 30
0.0
 42
1.0
  0
VERTEX
  5
7CB7
  8
IV_INTERIOR_PROFILES
 10
-13.97500000000012
 20
-15.50000000000006
 30
0.0
 42
1.0
  0
SEQEND
  5
7CB8
  8
IV_INTERIOR_PROFILES
  0
POLYLINE
  5
93C
  8
IV_INTERIOR_PROFILES
 66
     1
 10
0.0
 20
0.0
 30
0.0
 70
   129
  0
VERTEX
  5
7CB9
  8
IV_INTERIOR_PROFILES
 10
-26.025000000000091
 20
-23.50000000000006
 30
0.0
 42
1.0
  0
VERTEX
  5
7CBA
  8
IV_INTERIOR_PROFILES
 10
-20.97500000000014
 20
-23.50000000000006
 30
0.0
 42
1.0
  0
SEQEND
  5
7CBB
  8
IV_INTERIOR_PROFILES
  0
POLYLINE
  5
93D
  8
IV_INTERIOR_PROFILES
 66
     1
 10
0.0
 20
0.0
 30
0.0
 70
   129
  0
VERTEX
  5
7CBC
  8
IV_INTERIOR_PROFILES
 10
13.974999999999911
 20
-15.50000000000006
 30
0.0
 42
1.0
  0
VERTEX
  5
7CBD
  8
IV_INTERIOR_PROFILES
 10
17.02499999999986
 20
-15.50000000000006
 30
0.0
 42
1.0
  0
SEQEND
  5
7CBE
  8
IV_INTERIOR_PROFILES
  0
POLYLINE
  5
93E
  8
IV_INTERIOR_PROFILES
 66
     1
 10
0.0
 20
0.0
 30
0.0
 70
   129
  0
VERTEX
  5
7CBF
  8
IV_INTERIOR_PROFILES
 10
20.974999999999909
 20
-23.50000000000006
 30
0.0
 42
1.0
  0
VERTEX
  5
7CC0
  8
IV_INTERIOR_PROFILES
 10
26.024999999999871
 20
-23.50000000000006
 30
0.0
 42
1.0
  0
SEQEND
  5
7CC1
  8
IV_INTERIOR_PROFILES
  0
POLYLINE
  5
93F
  8
IV_INTERIOR_PROFILES
 66
     1
 10
0.0
 20
0.0
 30
0.0
 70
   129
  0
VERTEX
  5
7CC2
  8
IV_INTERIOR_PROFILES
 10
13.974999999999911
 20
15.49999999999994
 30
0.0
 42
1.0
  0
VERTEX
  5
7CC3
  8
IV_INTERIOR_PROFILES
 10
17.02499999999986
 20
15.49999999999994
 30
0.0
 42
1.0
  0
SEQEND
  5
7CC4
  8
IV_INTERIOR_PROFILES
  0
POLYLINE
  5
940
  8
IV_INTERIOR_PROFILES
 66
     1
 10
0.0
 20
0.0
 30
0.0
 70
   129
  0
VERTEX
  5
7CC5
  8
IV_INTERIOR_PROFILES
 10
20.974999999999909
 20
23.49999999999994
 30
0.0
 42
1.0
  0
VERTEX
  5
7CC6
  8
IV_INTERIOR_PROFILES
 10
26.024999999999871
 20
23.49999999999994
 30
0.0
 42
1.0
  0
SEQEND
  5
7CC7
  8
IV_INTERIOR_PROFILES
  0
ENDBLK
  5
934
  8
0
  0
BLOCK
  8
0
  2
*D15
 70
     1
 10
0.0
 20
0.0
 30
0.0
  3
*D15
  1

  0
ARC
  5
30BB
  8
0
 62
     0
 10
977.28762722601073
 20
-12.91687670737708
 30
0.0
 40
86.193696373383986
 50
1.661890325760492
 51
9.1519871878644317
  0
SOLID
  5
30BC
  8
0
 62
     0
 10
1063.861690896731
 20
-10.411097022283551
 30
0.0
 11
1063.0284451990069
 21
-10.42318220612524
 31
0.0
 12
1063.481323599394
 22
-12.91687670737711
 32
0.0
 13
1063.481323599394
 23
-12.91687670737711
 33
0.0
  0
SOLID
  5
30BD
  8
0
 62
     0
 10
1061.973710779122
 20
0.7203382348115213
 30
0.0
 11
1062.7944269764521
 21
0.8648005755278942
 31
0.0
 12
1061.950681855639
 22
3.2547179971585791
 32
0.0
 13
1061.950681855639
 23
3.2547179971585791
 33
0.0
  0
INSERT
  5
30BE
  8
0
  2
*U16
 10
0.0
 20
0.0
 30
0.0
  0
POINT
  5
30BF
  8
DEFPOINTS
 62
     0
 10
1063.310802792666
 20
-7.4977845384453419
 30
0.0
  0
POINT
  5
30C0
  8
DEFPOINTS
 62
     0
 10
1317.364307104823
 20
52.041590235766968
 30
0.0
  0
POINT
  5
30C1
  8
DEFPOINTS
 62
     0
 10
977.28762722601073
 20
-12.91687670737708
 30
0.0
  0
POINT
  5
30C2
  8
DEFPOINTS
 62
     0
 10
1080.0399180730881
 20
-12.916876707377099
 30
0.0
  0
POINT
  5
30C3
  8
DEFPOINTS
 62
     0
 10
977.28762722601073
 20
-12.91687670737708
 30
0.0
  0
ENDBLK
  5
30B0
  8
0
  0
BLOCK
  8
0
  2
*U16
 70
     1
 10
0.0
 20
0.0
 30
0.0
  3
*U16
  1

  0
TEXT
  5
6C80
  8
0
 62
     0
 10
1063.46420985843
 20
-2.033257500665913
 30
0.0
 40
2.5
  1
11°
 50
275.40693875681251
  0
ENDBLK
  5
6C82
  8
0
  0
BLOCK
  8
0
  2
*D17
 70
     1
 10
0.0
 20
0.0
 30
0.0
  3
*D17
  1

  0
LINE
  5
6D88
  8
0
 62
     0
 10
584.14680116232182
 20
2287.2718132514792
 30
0.0
 11
584.14680116232182
 21
2368.9667979756409
 31
0.0
  0
LINE
  5
6D89
  8
0
 62
     0
 10
2614.1468011623219
 20
2287.2718132514792
 30
0.0
 11
2614.1468011623219
 21
2368.9667979756409
 31
0.0
  0
LINE
  5
6D8A
  8
0
 62
     0
 10
609.14680116232182
 20
2367.7167979756418
 30
0.0
 11
2589.1468011623219
 21
2367.7167979756418
 31
0.0
  0
SOLID
  5
6D8B
  8
0
 62
     0
 10
609.14680116232182
 20
2371.8834646423079
 30
0.0
 11
609.14680116232182
 21
2363.5501313089749
 31
0.0
 12
584.14680116232182
 22
2367.7167979756418
 32
0.0
 13
584.14680116232182
 23
2367.7167979756418
 33
0.0
  0
SOLID
  5
6D8C
  8
0
 62
     0
 10
2589.1468011623219
 20
2371.8834646423079
 30
0.0
 11
2589.1468011623219
 21
2363.5501313089749
 31
0.0
 12
2614.1468011623219
 22
2367.7167979756418
 32
0.0
 13
2614.1468011623219
 23
2367.7167979756418
 33
0.0
  0
INSERT
  5
6D8D
  8
0
  2
*U18
 10
0.0
 20
0.0
 30
0.0
  0
POINT
  5
6D8E
  8
DEFPOINTS
 62
     0
 10
584.14680116232182
 20
2272.2718132514792
 30
0.0
  0
POINT
  5
6D8F
  8
DEFPOINTS
 62
     0
 10
2614.1468011623219
 20
2272.2718132514792
 30
0.0
  0
POINT
  5
6D90
  8
DEFPOINTS
 62
     0
 10
2614.1468011623219
 20
2367.7167979756418
 30
0.0
  0
ENDBLK
  5
6D48
  8
0
  0
BLOCK
  8
0
  2
*U18
 70
     1
 10
0.0
 20
0.0
 30
0.0
  3
*U18
  1

  0
TEXT
  5
7508
  8
0
 62
     0
 10
1544.1468011623219
 20
2372.7167979756409
 30
0.0
 40
33.0
  1
2030
  0
ENDBLK
  5
750A
  8
0
  0
BLOCK
  8
0
  2
*D19
 70
     1
 10
0.0
 20
0.0
 30
0.0
  3
*D19
  1

  0
LINE
  5
6E16
  8
0
 62
     0
 10
584.14680116232182
 20
2287.2718132514792
 30
0.0
 11
584.14680116232182
 21
2314.3263193089119
 31
0.0
  0
LINE
  5
6E17
  8
0
 62
     0
 10
1187.1468011623219
 20
2287.2718132514792
 30
0.0
 11
1187.1468011623219
 21
2314.3263193089119
 31
0.0
  0
LINE
  5
6E18
  8
0
 62
     0
 10
609.14680116232182
 20
2313.0763193089119
 30
0.0
 11
1162.1468011623219
 21
2313.0763193089119
 31
0.0
  0
SOLID
  5
6E19
  8
0
 62
     0
 10
609.14680116232182
 20
2317.2429859755789
 30
0.0
 11
609.14680116232182
 21
2308.909652642245
 31
0.0
 12
584.14680116232182
 22
2313.0763193089119
 32
0.0
 13
584.14680116232182
 23
2313.0763193089119
 33
0.0
  0
SOLID
  5
6E1A
  8
0
 62
     0
 10
1162.1468011623219
 20
2317.2429859755789
 30
0.0
 11
1162.1468011623219
 21
2308.909652642245
 31
0.0
 12
1187.1468011623219
 22
2313.0763193089119
 32
0.0
 13
1187.1468011623219
 23
2313.0763193089119
 33
0.0
  0
INSERT
  5
6E1B
  8
0
  2
*U20
 10
0.0
 20
0.0
 30
0.0
  0
POINT
  5
6E1C
  8
DEFPOINTS
 62
     0
 10
584.14680116232182
 20
2272.2718132514792
 30
0.0
  0
POINT
  5
6E1D
  8
DEFPOINTS
 62
     0
 10
1187.1468011623219
 20
2272.2718132514792
 30
0.0
  0
POINT
  5
6E1E
  8
DEFPOINTS
 62
     0
 10
1187.1468011623219
 20
2313.0763193089119
 30
0.0
  0
ENDBLK
  5
6D94
  8
0
  0
BLOCK
  8
0
  2
*U20
 70
     1
 10
0.0
 20
0.0
 30
0.0
  3
*U20
  1

  0
TEXT
  5
7518
  8
0
 62
     0
 10
844.39680116232194
 20
2318.0763193089128
 30
0.0
 40
33.0
  1
603
  0
ENDBLK
  5
751A
  8
0
  0
BLOCK
  8
0
  2
*D21
 70
     1
 10
0.0
 20
0.0
 30
0.0
  3
*D21
  1

  0
LINE
  5
6E0D
  8
0
 62
     0
 10
1187.1468011623219
 20
2287.2718132514792
 30
0.0
 11
1187.1468011623219
 21
2314.3263193089119
 31
0.0
  0
LINE
  5
6E0E
  8
0
 62
     0
 10
1790.1468011623219
 20
2287.2718132514792
 30
0.0
 11
1790.1468011623219
 21
2314.3263193089119
 31
0.0
  0
LINE
  5
6E0F
  8
0
 62
     0
 10
1212.1468011623219
 20
2313.0763193089119
 30
0.0
 11
1765.1468011623219
 21
2313.0763193089119
 31
0.0
  0
SOLID
  5
6E10
  8
0
 62
     0
 10
1212.1468011623219
 20
2317.2429859755789
 30
0.0
 11
1212.1468011623219
 21
2308.909652642245
 31
0.0
 12
1187.1468011623219
 22
2313.0763193089119
 32
0.0
 13
1187.1468011623219
 23
2313.0763193089119
 33
0.0
  0
SOLID
  5
6E11
  8
0
 62
     0
 10
1765.1468011623219
 20
2317.2429859755789
 30
0.0
 11
1765.1468011623219
 21
2308.909652642245
 31
0.0
 12
1790.1468011623219
 22
2313.0763193089119
 32
0.0
 13
1790.1468011623219
 23
2313.0763193089119
 33
0.0
  0
INSERT
  5
6E12
  8
0
  2
*U22
 10
0.0
 20
0.0
 30
0.0
  0
POINT
  5
6E13
  8
DEFPOINTS
 62
     0
 10
1187.1468011623219
 20
2272.2718132514792
 30
0.0
  0
POINT
  5
6E14
  8
DEFPOINTS
 62
     0
 10
1790.1468011623219
 20
2272.2718132514792
 30
0.0
  0
POINT
  5
6E15
  8
DEFPOINTS
 62
     0
 10
1790.1468011623219
 20
2313.0763193089119
 30
0.0
  0
ENDBLK
  5
6DA1
  8
0
  0
BLOCK
  8
0
  2
*U22
 70
     1
 10
0.0
 20
0.0
 30
0.0
  3
*U22
  1

  0
TEXT
  5
7514
  8
0
 62
     0
 10
1447.3968011623219
 20
2318.0763193089128
 30
0.0
 40
33.0
  1
603
  0
ENDBLK
  5
7516
  8
0
  0
BLOCK
  8
0
  2
*D23
 70
     1
 10
0.0
 20
0.0
 30
0.0
  3
*D23
  1

  0
LINE
  5
6E04
  8
0
 62
     0
 10
1790.1468011623219
 20
2287.2718132514792
 30
0.0
 11
1790.1468011623219
 21
2314.3263193089119
 31
0.0
  0
LINE
  5
6E05
  8
0
 62
     0
 10
2393.1468011623219
 20
2287.2718132514792
 30
0.0
 11
2393.1468011623219
 21
2314.3263193089119
 31
0.0
  0
LINE
  5
6E06
  8
0
 62
     0
 10
1815.146801162321
 20
2313.0763193089119
 30
0.0
 11
2368.1468011623219
 21
2313.0763193089119
 31
0.0
  0
SOLID
  5
6E07
  8
0
 62
     0
 10
1815.146801162321
 20
2317.2429859755789
 30
0.0
 11
1815.146801162321
 21
2308.909652642245
 31
0.0
 12
1790.1468011623219
 22
2313.0763193089119
 32
0.0
 13
1790.1468011623219
 23
2313.0763193089119
 33
0.0
  0
SOLID
  5
6E08
  8
0
 62
     0
 10
2368.1468011623219
 20
2317.2429859755789
 30
0.0
 11
2368.1468011623219
 21
2308.909652642245
 31
0.0
 12
2393.1468011623219
 22
2313.0763193089119
 32
0.0
 13
2393.1468011623219
 23
2313.0763193089119
 33
0.0
  0
INSERT
  5
6E09
  8
0
  2
*U24
 10
0.0
 20
0.0
 30
0.0
  0
POINT
  5
6E0A
  8
DEFPOINTS
 62
     0
 10
1790.1468011623219
 20
2272.2718132514792
 30
0.0
  0
POINT
  5
6E0B
  8
DEFPOINTS
 62
     0
 10
2393.1468011623219
 20
2272.2718132514792
 30
0.0
  0
POINT
  5
6E0C
  8
DEFPOINTS
 62
     0
 10
2393.1468011623219
 20
2313.0763193089119
 30
0.0
  0
ENDBLK
  5
6DAE
  8
0
  0
BLOCK
  8
0
  2
*U24
 70
     1
 10
0.0
 20
0.0
 30
0.0
  3
*U24
  1

  0
TEXT
  5
7510
  8
0
 62
     0
 10
2050.396801162321
 20
2318.0763193089128
 30
0.0
 40
33.0
  1
603
  0
ENDBLK
  5
7512
  8
0
  0
BLOCK
  8
0
  2
*D25
 70
     1
 10
0.0
 20
0.0
 30
0.0
  3
*D25
  1

  0
LINE
  5
6DFB
  8
0
 62
     0
 10
2393.1468011623219
 20
2287.2718132514792
 30
0.0
 11
2393.1468011623219
 21
2314.3263193089119
 31
0.0
  0
LINE
  5
6DFC
  8
0
 62
     0
 10
2614.1468011623219
 20
2287.2718132514792
 30
0.0
 11
2614.1468011623219
 21
2314.3263193089119
 31
0.0
  0
LINE
  5
6DFD
  8
0
 62
     0
 10
2418.1468011623219
 20
2313.0763193089119
 30
0.0
 11
2589.1468011623219
 21
2313.0763193089119
 31
0.0
  0
SOLID
  5
6DFE
  8
0
 62
     0
 10
2418.1468011623219
 20
2317.2429859755789
 30
0.0
 11
2418.1468011623219
 21
2308.909652642245
 31
0.0
 12
2393.1468011623219
 22
2313.0763193089119
 32
0.0
 13
2393.1468011623219
 23
2313.0763193089119
 33
0.0
  0
SOLID
  5
6DFF
  8
0
 62
     0
 10
2589.1468011623219
 20
2317.2429859755789
 30
0.0
 11
2589.1468011623219
 21
2308.909652642245
 31
0.0
 12
2614.1468011623219
 22
2313.0763193089119
 32
0.0
 13
2614.1468011623219
 23
2313.0763193089119
 33
0.0
  0
INSERT
  5
6E00
  8
0
  2
*U26
 10
0.0
 20
0.0
 30
0.0
  0
POINT
  5
6E01
  8
DEFPOINTS
 62
     0
 10
2393.1468011623219
 20
2272.2718132514792
 30
0.0
  0
POINT
  5
6E02
  8
DEFPOINTS
 62
     0
 10
2614.1468011623219
 20
2272.2718132514792
 30
0.0
  0
POINT
  5
6E03
  8
DEFPOINTS
 62
     0
 10
2614.1468011623219
 20
2313.0763193089119
 30
0.0
  0
ENDBLK
  5
6DBB
  8
0
  0
BLOCK
  8
0
  2
*U26
 70
     1
 10
0.0
 20
0.0
 30
0.0
  3
*U26
  1

  0
TEXT
  5
750C
  8
0
 62
     0
 10
2465.1468011623219
 20
2318.0763193089128
 30
0.0
 40
33.0
  1
221
  0
ENDBLK
  5
750E
  8
0
  0
BLOCK
  8
0
  2
*D27
 70
     1
 10
0.0
 20
0.0
 30
0.0
  3
*D27
  1

  0
LINE
  5
6E31
  8
0
 62
     0
 10
2629.1468011623219
 20
2272.2718132514792
 30
0.0
 11
2769.862772621304
 21
2272.2718132514792
 31
0.0
  0
LINE
  5
6E32
  8
0
 62
     0
 10
2629.1468011623219
 20
1467.271813251479
 30
0.0
 11
2769.862772621304
 21
1467.271813251479
 31
0.0
  0
LINE
  5
6E33
  8
0
 62
     0
 10
2768.6127726213031
 20
2247.2718132514792
 30
0.0
 11
2768.6127726213031
 21
1492.271813251479
 31
0.0
  0
SOLID
  5
6E34
  8
0
 62
     0
 10
2764.446105954637
 20
2247.2718132514792
 30
0.0
 11
2772.77943928797
 21
2247.2718132514792
 31
0.0
 12
2768.6127726213031
 22
2272.2718132514792
 32
0.0
 13
2768.6127726213031
 23
2272.2718132514792
 33
0.0
  0
SOLID
  5
6E35
  8
0
 62
     0
 10
2764.446105954637
 20
1492.271813251479
 30
0.0
 11
2772.77943928797
 21
1492.271813251479
 31
0.0
 12
2768.6127726213031
 22
1467.271813251479
 32
0.0
 13
2768.6127726213031
 23
1467.271813251479
 33
0.0
  0
INSERT
  5
6E36
  8
0
  2
*U28
 10
0.0
 20
0.0
 30
0.0
  0
POINT
  5
6E37
  8
DEFPOINTS
 62
     0
 10
2614.1468011623219
 20
2272.2718132514792
 30
0.0
  0
POINT
  5
6E38
  8
DEFPOINTS
 62
     0
 10
2614.1468011623219
 20
1467.271813251479
 30
0.0
  0
POINT
  5
6E39
  8
DEFPOINTS
 62
     0
 10
2768.6127726213031
 20
1467.271813251479
 30
0.0
  0
ENDBLK
  5
6DC8
  8
0
  0
BLOCK
  8
0
  2
*U28
 70
     1
 10
0.0
 20
0.0
 30
0.0
  3
*U28
  1

  0
TEXT
  5
7524
  8
0
 62
     0
 10
2763.612772621304
 20
1828.521813251479
 30
0.0
 40
33.0
  1
805
 50
90.0
  0
ENDBLK
  5
7526
  8
0
  0
BLOCK
  8
0
  2
*D29
 70
     1
 10
0.0
 20
0.0
 30
0.0
  3
*D29
  1

  0
LINE
  5
6E28
  8
0
 62
     0
 10
2629.1468011623219
 20
2272.2718132514792
 30
0.0
 11
2693.456062440212
 21
2272.2718132514792
 31
0.0
  0
LINE
  5
6E29
  8
0
 62
     0
 10
2629.1468011623219
 20
1869.771813251479
 30
0.0
 11
2693.456062440212
 21
1869.771813251479
 31
0.0
  0
LINE
  5
6E2A
  8
0
 62
     0
 10
2692.2060624402129
 20
2247.2718132514792
 30
0.0
 11
2692.2060624402129
 21
1894.771813251479
 31
0.0
  0
SOLID
  5
6E2B
  8
0
 62
     0
 10
2688.0393957735459
 20
2247.2718132514792
 30
0.0
 11
2696.372729106879
 21
2247.2718132514792
 31
0.0
 12
2692.2060624402129
 22
2272.2718132514792
 32
0.0
 13
2692.2060624402129
 23
2272.2718132514792
 33
0.0
  0
SOLID
  5
6E2C
  8
0
 62
     0
 10
2688.0393957735459
 20
1894.771813251479
 30
0.0
 11
2696.372729106879
 21
1894.771813251479
 31
0.0
 12
2692.2060624402129
 22
1869.771813251479
 32
0.0
 13
2692.2060624402129
 23
1869.771813251479
 33
0.0
  0
INSERT
  5
6E2D
  8
0
  2
*U30
 10
0.0
 20
0.0
 30
0.0
  0
POINT
  5
6E2E
  8
DEFPOINTS
 62
     0
 10
2614.1468011623219
 20
2272.2718132514792
 30
0.0
  0
POINT
  5
6E2F
  8
DEFPOINTS
 62
     0
 10
2614.1468011623219
 20
1869.771813251479
 30
0.0
  0
POINT
  5
6E30
  8
DEFPOINTS
 62
     0
 10
2692.2060624402129
 20
1869.771813251479
 30
0.0
  0
ENDBLK
  5
6DD5
  8
0
  0
BLOCK
  8
0
  2
*U30
 70
     1
 10
0.0
 20
0.0
 30
0.0
  3
*U30
  1

  0
TEXT
  5
7520
  8
0
 62
     0
 10
2687.206062440212
 20
2007.7718132514799
 30
0.0
 40
33.0
  1
402.5
 50
90.0
  0
ENDBLK
  5
7522
  8
0
  0
BLOCK
  8
0
  2
*D31
 70
     1
 10
0.0
 20
0.0
 30
0.0
  3
*D31
  1

  0
LINE
  5
6E1F
  8
0
 62
     0
 10
2629.1468011623219
 20
1869.771813251479
 30
0.0
 11
2693.456062440212
 21
1869.771813251479
 31
0.0
  0
LINE
  5
6E20
  8
0
 62
     0
 10
2629.1468011623219
 20
1467.271813251479
 30
0.0
 11
2693.456062440212
 21
1467.271813251479
 31
0.0
  0
LINE
  5
6E21
  8
0
 62
     0
 10
2692.2060624402129
 20
1844.771813251479
 30
0.0
 11
2692.2060624402129
 21
1492.271813251479
 31
0.0
  0
SOLID
  5
6E22
  8
0
 62
     0
 10
2688.0393957735459
 20
1844.771813251479
 30
0.0
 11
2696.372729106879
 21
1844.771813251479
 31
0.0
 12
2692.2060624402129
 22
1869.771813251479
 32
0.0
 13
2692.2060624402129
 23
1869.771813251479
 33
0.0
  0
SOLID
  5
6E23
  8
0
 62
     0
 10
2688.0393957735459
 20
1492.271813251479
 30
0.0
 11
2696.372729106879
 21
1492.271813251479
 31
0.0
 12
2692.2060624402129
 22
1467.271813251479
 32
0.0
 13
2692.2060624402129
 23
1467.271813251479
 33
0.0
  0
INSERT
  5
6E24
  8
0
  2
*U32
 10
0.0
 20
0.0
 30
0.0
  0
POINT
  5
6E25
  8
DEFPOINTS
 62
     0
 10
2614.1468011623219
 20
1869.771813251479
 30
0.0
  0
POINT
  5
6E26
  8
DEFPOINTS
 62
     0
 10
2614.1468011623219
 20
1467.271813251479
 30
0.0
  0
POINT
  5
6E27
  8
DEFPOINTS
 62
     0
 10
2692.2060624402129
 20
1467.271813251479
 30
0.0
  0
ENDBLK
  5
6DE2
  8
0
  0
BLOCK
  8
0
  2
*U32
 70
     1
 10
0.0
 20
0.0
 30
0.0
  3
*U32
  1

  0
TEXT
  5
751C
  8
0
 62
     0
 10
2687.206062440212
 20
1605.2718132514799
 30
0.0
 40
33.0
  1
402.5
 50
90.0
  0
ENDBLK
  5
751E
  8
0
  0
BLOCK
  8
0
  2
*D33
 70
     1
 10
0.0
 20
0.0
 30
0.0
  3
*D33
  1

  0
LINE
  5
752C
  8
0
 62
     0
 10
583.84274283342074
 20
1784.9080087904019
 30
0.0
 11
583.84274283342074
 21
1817.9908899443731
 31
0.0
  0
LINE
  5
752D
  8
0
 62
     0
 10
988.84274283342074
 20
1784.9080087904019
 30
0.0
 11
988.84274283342074
 21
1817.9908899443731
 31
0.0
  0
LINE
  5
752E
  8
0
 62
     0
 10
608.84274283342074
 20
1816.7408899443731
 30
0.0
 11
963.84274283342074
 21
1816.7408899443731
 31
0.0
  0
SOLID
  5
752F
  8
0
 62
     0
 10
608.84274283342074
 20
1820.90755661104
 30
0.0
 11
608.84274283342074
 21
1812.574223277707
 31
0.0
 12
583.84274283342074
 22
1816.7408899443731
 32
0.0
 13
583.84274283342074
 23
1816.7408899443731
 33
0.0
  0
SOLID
  5
7530
  8
0
 62
     0
 10
963.84274283342074
 20
1820.90755661104
 30
0.0
 11
963.84274283342074
 21
1812.574223277707
 31
0.0
 12
988.84274283342074
 22
1816.7408899443731
 32
0.0
 13
988.84274283342074
 23
1816.7408899443731
 33
0.0
  0
TEXT
  5
7599
  8
0
 62
     0
 10
720.34299999999996
 20
1779.8299999999999
 30
0.0
 40
33.0
  1
405
  0
POINT
  5
7532
  8
DEFPOINTS
 62
     0
 10
583.84274283342074
 20
1769.9080087904019
 30
0.0
  0
POINT
  5
7533
  8
DEFPOINTS
 62
     0
 10
988.84274283342074
 20
1769.9080087904019
 30
0.0
  0
POINT
  5
7534
  8
DEFPOINTS
 62
     0
 10
988.84274283342074
 20
1816.7408899443731
 30
0.0
  0
ENDBLK
  5
6E53
  8
0
  0
BLOCK
  8
0
  2
*D34
 70
     1
 10
0.0
 20
0.0
 30
0.0
  3
*D34
  1

  0
LINE
  5
7535
  8
0
 62
     0
 10
988.84274283342074
 20
1784.9080087904019
 30
0.0
 11
988.84274283342074
 21
1817.9908899443731
 31
0.0
  0
LINE
  5
7536
  8
0
 62
     0
 10
1393.842742833421
 20
1784.9080087904019
 30
0.0
 11
1393.842742833421
 21
1817.9908899443731
 31
0.0
  0
LINE
  5
7537
  8
0
 62
     0
 10
1013.8427428334199
 20
1816.7408899443731
 30
0.0
 11
1368.842742833421
 21
1816.7408899443731
 31
0.0
  0
SOLID
  5
7538
  8
0
 62
     0
 10
1013.8427428334199
 20
1820.90755661104
 30
0.0
 11
1013.8427428334199
 21
1812.574223277707
 31
0.0
 12
988.84274283342074
 22
1816.7408899443731
 32
0.0
 13
988.84274283342074
 23
1816.7408899443731
 33
0.0
  0
SOLID
  5
7539
  8
0
 62
     0
 10
1368.842742833421
 20
1820.90755661104
 30
0.0
 11
1368.842742833421
 21
1812.574223277707
 31
0.0
 12
1393.842742833421
 22
1816.7408899443731
 32
0.0
 13
1393.842742833421
 23
1816.7408899443731
 33
0.0
  0
TEXT
  5
759A
  8
0
 62
     0
 10
1125.3399999999999
 20
1779.8299999999999
 30
0.0
 40
33.0
  1
405
  0
POINT
  5
753B
  8
DEFPOINTS
 62
     0
 10
988.84274283342074
 20
1769.9080087904019
 30
0.0
  0
POINT
  5
753C
  8
DEFPOINTS
 62
     0
 10
1393.842742833421
 20
1769.9080087904019
 30
0.0
  0
POINT
  5
753D
  8
DEFPOINTS
 62
     0
 10
1393.842742833421
 20
1816.7408899443731
 30
0.0
  0
ENDBLK
  5
6E60
  8
0
  0
BLOCK
  8
0
  2
*D35
 70
     1
 10
0.0
 20
0.0
 30
0.0
  3
*D35
  1

  0
LINE
  5
753E
  8
0
 62
     0
 10
1393.842742833421
 20
1784.9080087904019
 30
0.0
 11
1393.842742833421
 21
1817.9908899443731
 31
0.0
  0
LINE
  5
753F
  8
0
 62
     0
 10
1798.842742833421
 20
1784.9080087904019
 30
0.0
 11
1798.842742833421
 21
1817.9908899443731
 31
0.0
  0
LINE
  5
7540
  8
0
 62
     0
 10
1418.842742833421
 20
1816.7408899443731
 30
0.0
 11
1773.842742833421
 21
1816.7408899443731
 31
0.0
  0
SOLID
  5
7541
  8
0
 62
     0
 10
1418.842742833421
 20
1820.90755661104
 30
0.0
 11
1418.842742833421
 21
1812.574223277707
 31
0.0
 12
1393.842742833421
 22
1816.7408899443731
 32
0.0
 13
1393.842742833421
 23
1816.7408899443731
 33
0.0
  0
SOLID
  5
7542
  8
0
 62
     0
 10
1773.842742833421
 20
1820.90755661104
 30
0.0
 11
1773.842742833421
 21
1812.574223277707
 31
0.0
 12
1798.842742833421
 22
1816.7408899443731
 32
0.0
 13
1798.842742833421
 23
1816.7408899443731
 33
0.0
  0
TEXT
  5
759B
  8
0
 62
     0
 10
1530.3399999999999
 20
1779.8299999999999
 30
0.0
 40
33.0
  1
405
  0
POINT
  5
7544
  8
DEFPOINTS
 62
     0
 10
1393.842742833421
 20
1769.9080087904019
 30
0.0
  0
POINT
  5
7545
  8
DEFPOINTS
 62
     0
 10
1798.842742833421
 20
1769.9080087904019
 30
0.0
  0
POINT
  5
7546
  8
DEFPOINTS
 62
     0
 10
1798.842742833421
 20
1816.7408899443731
 30
0.0
  0
ENDBLK
  5
6E6D
  8
0
  0
BLOCK
  8
0
  2
*D36
 70
     1
 10
0.0
 20
0.0
 30
0.0
  3
*D36
  1

  0
LINE
  5
7547
  8
0
 62
     0
 10
1798.842742833421
 20
1784.9080087904019
 30
0.0
 11
1798.842742833421
 21
1817.9908899443731
 31
0.0
  0
LINE
  5
7548
  8
0
 62
     0
 10
2203.8427428334212
 20
1784.9080087904019
 30
0.0
 11
2203.8427428334212
 21
1817.9908899443731
 31
0.0
  0
LINE
  5
7549
  8
0
 62
     0
 10
1823.842742833421
 20
1816.7408899443731
 30
0.0
 11
2178.8427428334212
 21
1816.7408899443731
 31
0.0
  0
SOLID
  5
754A
  8
0
 62
     0
 10
1823.842742833421
 20
1820.90755661104
 30
0.0
 11
1823.842742833421
 21
1812.574223277707
 31
0.0
 12
1798.842742833421
 22
1816.7408899443731
 32
0.0
 13
1798.842742833421
 23
1816.7408899443731
 33
0.0
  0
SOLID
  5
754B
  8
0
 62
     0
 10
2178.8427428334212
 20
1820.90755661104
 30
0.0
 11
2178.8427428334212
 21
1812.574223277707
 31
0.0
 12
2203.8427428334212
 22
1816.7408899443731
 32
0.0
 13
2203.8427428334212
 23
1816.7408899443731
 33
0.0
  0
TEXT
  5
759C
  8
0
 62
     0
 10
1935.3399999999999
 20
1779.8299999999999
 30
0.0
 40
33.0
  1
405
  0
POINT
  5
754D
  8
DEFPOINTS
 62
     0
 10
1798.842742833421
 20
1769.9080087904019
 30
0.0
  0
POINT
  5
754E
  8
DEFPOINTS
 62
     0
 10
2203.8427428334212
 20
1769.9080087904019
 30
0.0
  0
POINT
  5
754F
  8
DEFPOINTS
 62
     0
 10
2203.8427428334212
 20
1816.7408899443731
 30
0.0
  0
ENDBLK
  5
6E7A
  8
0
  0
BLOCK
  8
0
  2
*D37
 70
     1
 10
0.0
 20
0.0
 30
0.0
  3
*D37
  1

  0
LINE
  5
7550
  8
0
 62
     0
 10
2203.8427428334212
 20
1784.9080087904019
 30
0.0
 11
2203.8427428334212
 21
1817.9908899443731
 31
0.0
  0
LINE
  5
7551
  8
0
 62
     0
 10
2613.8427428334212
 20
1784.9080087904019
 30
0.0
 11
2613.8427428334212
 21
1817.9908899443731
 31
0.0
  0
LINE
  5
7552
  8
0
 62
     0
 10
2228.8427428334212
 20
1816.7408899443731
 30
0.0
 11
2588.8427428334212
 21
1816.7408899443731
 31
0.0
  0
SOLID
  5
7553
  8
0
 62
     0
 10
2228.8427428334212
 20
1820.90755661104
 30
0.0
 11
2228.8427428334212
 21
1812.574223277707
 31
0.0
 12
2203.8427428334212
 22
1816.7408899443731
 32
0.0
 13
2203.8427428334212
 23
1816.7408899443731
 33
0.0
  0
SOLID
  5
7554
  8
0
 62
     0
 10
2588.8427428334212
 20
1820.90755661104
 30
0.0
 11
2588.8427428334212
 21
1812.574223277707
 31
0.0
 12
2613.8427428334212
 22
1816.7408899443731
 32
0.0
 13
2613.8427428334212
 23
1816.7408899443731
 33
0.0
  0
TEXT
  5
759D
  8
0
 62
     0
 10
2342.8400000000001
 20
1779.8299999999999
 30
0.0
 40
33.0
  1
410
  0
POINT
  5
7556
  8
DEFPOINTS
 62
     0
 10
2203.8427428334212
 20
1769.9080087904019
 30
0.0
  0
POINT
  5
7557
  8
DEFPOINTS
 62
     0
 10
2613.8427428334212
 20
1769.9080087904019
 30
0.0
  0
POINT
  5
7558
  8
DEFPOINTS
 62
     0
 10
2613.8427428334212
 20
1816.7408899443731
 30
0.0
  0
ENDBLK
  5
6E87
  8
0
  0
BLOCK
  8
0
  2
*D38
 70
     1
 10
0.0
 20
0.0
 30
0.0
  3
*D38
  1

  0
LINE
  5
7559
  8
0
 62
     0
 10
583.84274283342074
 20
1057.27784109654
 30
0.0
 11
583.84274283342074
 21
1028.431919363187
 31
0.0
  0
LINE
  5
755A
  8
0
 62
     0
 10
1598.842742833421
 20
1057.27784109654
 30
0.0
 11
1598.842742833421
 21
1028.431919363187
 31
0.0
  0
LINE
  5
755B
  8
0
 62
     0
 10
608.84274283342074
 20
1029.681919363187
 30
0.0
 11
1573.8427428334201
 21
1029.681919363187
 31
0.0
  0
SOLID
  5
755C
  8
0
 62
     0
 10
608.84274283342074
 20
1033.848586029854
 30
0.0
 11
608.84274283342074
 21
1025.5152526965201
 31
0.0
 12
583.84274283342074
 22
1029.681919363187
 32
0.0
 13
583.84274283342074
 23
1029.681919363187
 33
0.0
  0
SOLID
  5
755D
  8
0
 62
     0
 10
1573.8427428334201
 20
1033.848586029854
 30
0.0
 11
1573.8427428334201
 21
1025.5152526965201
 31
0.0
 12
1598.842742833421
 22
1029.681919363187
 32
0.0
 13
1598.842742833421
 23
1029.681919363187
 33
0.0
  0
TEXT
  5
759E
  8
0
 62
     0
 10
1025.3399999999999
 20
992.77199999999982
 30
0.0
 40
33.0
  1
1015
  0
POINT
  5
755F
  8
DEFPOINTS
 62
     0
 10
583.84274283342074
 20
1072.2778410965409
 30
0.0
  0
POINT
  5
7560
  8
DEFPOINTS
 62
     0
 10
1598.842742833421
 20
1072.2778410965409
 30
0.0
  0
POINT
  5
7561
  8
DEFPOINTS
 62
     0
 10
1598.842742833421
 20
1029.681919363187
 30
0.0
  0
ENDBLK
  5
6EC1
  8
0
  0
BLOCK
  8
0
  2
*D39
 70
     1
 10
0.0
 20
0.0
 30
0.0
  3
*D39
  1

  0
LINE
  5
7562
  8
0
 62
     0
 10
2613.8427428334212
 20
1057.27784109654
 30
0.0
 11
2613.8427428334212
 21
1028.431919363187
 31
0.0
  0
LINE
  5
7563
  8
0
 62
     0
 10
1598.842742833421
 20
1057.27784109654
 30
0.0
 11
1598.842742833421
 21
1028.431919363187
 31
0.0
  0
LINE
  5
7564
  8
0
 62
     0
 10
2588.8427428334212
 20
1029.681919363187
 30
0.0
 11
1623.842742833421
 21
1029.681919363187
 31
0.0
  0
SOLID
  5
7565
  8
0
 62
     0
 10
2588.8427428334212
 20
1033.848586029854
 30
0.0
 11
2588.8427428334212
 21
1025.5152526965201
 31
0.0
 12
2613.8427428334212
 22
1029.681919363187
 32
0.0
 13
2613.8427428334212
 23
1029.681919363187
 33
0.0
  0
SOLID
  5
7566
  8
0
 62
     0
 10
1623.842742833421
 20
1033.848586029854
 30
0.0
 11
1623.842742833421
 21
1025.5152526965201
 31
0.0
 12
1598.842742833421
 22
1029.681919363187
 32
0.0
 13
1598.842742833421
 23
1029.681919363187
 33
0.0
  0
TEXT
  5
759F
  8
0
 62
     0
 10
2040.3399999999999
 20
992.77199999999982
 30
0.0
 40
33.0
  1
1015
  0
POINT
  5
7568
  8
DEFPOINTS
 62
     0
 10
2613.8427428334212
 20
1072.2778410965409
 30
0.0
  0
POINT
  5
7569
  8
DEFPOINTS
 62
     0
 10
1598.842742833421
 20
1072.2778410965409
 30
0.0
  0
POINT
  5
756A
  8
DEFPOINTS
 62
     0
 10
1598.842742833421
 20
1029.681919363187
 30
0.0
  0
ENDBLK
  5
6ECE
  8
0
  0
BLOCK
  8
0
  2
*D40
 70
     1
 10
0.0
 20
0.0
 30
0.0
  3
*D40
  1

  0
LINE
  5
756B
  8
0
 62
     0
 10
568.84274283342074
 20
1769.9080087904019
 30
0.0
 11
528.87019762879675
 21
1769.9080087904019
 31
0.0
  0
LINE
  5
756C
  8
0
 62
     0
 10
568.84274283342074
 20
1167.9080087904019
 30
0.0
 11
528.87019762879663
 21
1167.9080087904019
 31
0.0
  0
LINE
  5
756D
  8
0
 62
     0
 10
530.12019762879675
 20
1744.9080087904019
 30
0.0
 11
530.12019762879663
 21
1192.9080087904019
 31
0.0
  0
SOLID
  5
756E
  8
0
 62
     0
 10
525.95353096212989
 20
1744.9080087904019
 30
0.0
 11
534.28686429546315
 21
1744.9080087904019
 31
0.0
 12
530.12019762879675
 22
1769.9080087904019
 32
0.0
 13
530.12019762879675
 23
1769.9080087904019
 33
0.0
  0
SOLID
  5
756F
  8
0
 62
     0
 10
525.95353096212978
 20
1192.9080087904019
 30
0.0
 11
534.28686429546315
 21
1192.9080087904019
 31
0.0
 12
530.12019762879663
 22
1167.9080087904019
 32
0.0
 13
530.12019762879663
 23
1167.9080087904019
 33
0.0
  0
TEXT
  5
75A0
  8
0
 62
     0
 10
442.62
 20
1410.5
 30
0.0
 40
33.0
  1
602
  0
POINT
  5
7571
  8
DEFPOINTS
 62
     0
 10
583.84274283342074
 20
1769.9080087904019
 30
0.0
  0
POINT
  5
7572
  8
DEFPOINTS
 62
     0
 10
583.84274283342074
 20
1167.9080087904019
 30
0.0
  0
POINT
  5
7573
  8
DEFPOINTS
 62
     0
 10
530.12019762879663
 20
1167.9080087904019
 30
0.0
  0
ENDBLK
  5
6EFF
  8
0
  0
BLOCK
  8
0
  2
*D41
 70
     1
 10
0.0
 20
0.0
 30
0.0
  3
*D41
  1

  0
LINE
  5
7574
  8
0
 62
     0
 10
568.84274283342074
 20
1167.9080087904019
 30
0.0
 11
528.87019762879663
 21
1167.9080087904019
 31
0.0
  0
LINE
  5
7575
  8
0
 62
     0
 10
568.84274283342074
 20
1084.9080087904019
 30
0.0
 11
528.87019762879663
 21
1084.9080087904019
 31
0.0
  0
LINE
  5
7576
  8
0
 62
     0
 10
530.12019762879663
 20
1142.9080087904019
 30
0.0
 11
530.12019762879663
 21
1109.9080087904019
 31
0.0
  0
SOLID
  5
7577
  8
0
 62
     0
 10
525.95353096212978
 20
1142.9080087904019
 30
0.0
 11
534.28686429546315
 21
1142.9080087904019
 31
0.0
 12
530.12019762879663
 22
1167.9080087904019
 32
0.0
 13
530.12019762879663
 23
1167.9080087904019
 33
0.0
  0
SOLID
  5
7578
  8
0
 62
     0
 10
525.95353096212978
 20
1109.9080087904019
 30
0.0
 11
534.28686429546315
 21
1109.9080087904019
 31
0.0
 12
530.12019762879663
 22
1084.9080087904019
 32
0.0
 13
530.12019762879663
 23
1084.9080087904019
 33
0.0
  0
TEXT
  5
75A1
  8
0
 62
     0
 10
442.62
 20
1068.0
 30
0.0
 40
33.0
  1
83
  0
POINT
  5
757A
  8
DEFPOINTS
 62
     0
 10
583.84274283342074
 20
1167.9080087904019
 30
0.0
  0
POINT
  5
757B
  8
DEFPOINTS
 62
     0
 10
583.84274283342074
 20
1084.9080087904019
 30
0.0
  0
POINT
  5
757C
  8
DEFPOINTS
 62
     0
 10
530.12019762879663
 20
1084.9080087904019
 30
0.0
  0
ENDBLK
  5
6F0C
  8
0
  0
BLOCK
  8
0
  2
*D42
 70
     1
 10
0.0
 20
0.0
 30
0.0
  3
*D42
  1

  0
LINE
  5
757D
  8
0
 62
     0
 10
568.84274283342074
 20
1769.9080087904019
 30
0.0
 11
461.9680231800985
 21
1769.9080087904019
 31
0.0
  0
LINE
  5
757E
  8
0
 62
     0
 10
568.84274283342074
 20
1084.9080087904019
 30
0.0
 11
461.96802318009833
 21
1084.9080087904019
 31
0.0
  0
LINE
  5
757F
  8
0
 62
     0
 10
463.2180231800985
 20
1744.9080087904019
 30
0.0
 11
463.21802318009833
 21
1109.9080087904019
 31
0.0
  0
SOLID
  5
7580
  8
0
 62
     0
 10
459.05135651343193
 20
1744.9080087904019
 30
0.0
 11
467.3846898467653
 21
1744.9080087904019
 31
0.0
 12
463.2180231800985
 22
1769.9080087904019
 32
0.0
 13
463.2180231800985
 23
1769.9080087904019
 33
0.0
  0
SOLID
  5
7581
  8
0
 62
     0
 10
459.05135651343159
 20
1109.9080087904019
 30
0.0
 11
467.38468984676513
 21
1109.9080087904019
 31
0.0
 12
463.21802318009833
 22
1084.9080087904019
 32
0.0
 13
463.21802318009833
 23
1084.9080087904019
 33
0.0
  0
TEXT
  5
75A2
  8
0
 62
     0
 10
375.71800000000002
 20
1369.0
 30
0.0
 40
33.0
  1
685
  0
POINT
  5
7583
  8
DEFPOINTS
 62
     0
 10
583.84274283342074
 20
1769.9080087904019
 30
0.0
  0
POINT
  5
7584
  8
DEFPOINTS
 62
     0
 10
583.84274283342074
 20
1084.9080087904019
 30
0.0
  0
POINT
  5
7585
  8
DEFPOINTS
 62
     0
 10
463.21802318009833
 20
1084.9080087904019
 30
0.0
  0
ENDBLK
  5
6F2B
  8
0
  0
BLOCK
  8
0
  2
*D43
 70
     1
 10
0.0
 20
0.0
 30
0.0
  3
*D43
  1

  0
LINE
  5
7586
  8
0
 62
     0
 10
583.84274283342074
 20
1784.9080087904019
 30
0.0
 11
583.84274283342074
 21
1889.6021082597199
 31
0.0
  0
LINE
  5
7587
  8
0
 62
     0
 10
2613.8427428334212
 20
1784.9080087904019
 30
0.0
 11
2613.8427428334212
 21
1889.6021082597199
 31
0.0
  0
LINE
  5
7588
  8
0
 62
     0
 10
608.84274283342074
 20
1888.3521082597199
 30
0.0
 11
2588.8427428334212
 21
1888.3521082597199
 31
0.0
  0
SOLID
  5
7589
  8
0
 62
     0
 10
608.84274283342074
 20
1892.518774926386
 30
0.0
 11
608.84274283342074
 21
1884.1854415930529
 31
0.0
 12
583.84274283342074
 22
1888.3521082597199
 32
0.0
 13
583.84274283342074
 23
1888.3521082597199
 33
0.0
  0
SOLID
  5
758A
  8
0
 62
     0
 10
2588.8427428334212
 20
1892.518774926386
 30
0.0
 11
2588.8427428334212
 21
1884.1854415930529
 31
0.0
 12
2613.8427428334212
 22
1888.3521082597199
 32
0.0
 13
2613.8427428334212
 23
1888.3521082597199
 33
0.0
  0
TEXT
  5
75A3
  8
0
 62
     0
 10
1532.8399999999999
 20
1851.4400000000001
 30
0.0
 40
33.0
  1
2030
  0
POINT
  5
758C
  8
DEFPOINTS
 62
     0
 10
583.84274283342074
 20
1769.9080087904019
 30
0.0
  0
POINT
  5
758D
  8
DEFPOINTS
 62
     0
 10
2613.8427428334212
 20
1769.9080087904019
 30
0.0
  0
POINT
  5
758E
  8
DEFPOINTS
 62
     0
 10
2613.8427428334212
 20
1888.3521082597199
 30
0.0
  0
ENDBLK
  5
6F38
  8
0
  0
BLOCK
  8
0
  2
Z_PLATE_II
 70
     0
 10
0.0
 20
0.0
 30
0.0
  3
Z_PLATE_II
  1

  0
POLYLINE
  5
7697
  8
IV_OUTER_PROFILE
 66
     1
 10
0.0
 20
0.0
 30
0.0
 70
   129
  0
VERTEX
  5
7DBF
  8
IV_OUTER_PROFILE
 10
0.0000000000004547
 20
-2.2249999999989991
 30
0.0
 42
-0.414213562373095
  0
VERTEX
  5
7DC0
  8
IV_OUTER_PROFILE
 10
-2.2249999999994539
 20
0.0000000000009095
 30
0.0
  0
VERTEX
  5
7DC1
  8
IV_OUTER_PROFILE
 10
-2.2249999999994539
 20
126.0000000000009
 30
0.0
 42
-0.4142135623730919
  0
VERTEX
  5
7DC2
  8
IV_OUTER_PROFILE
 10
0.0000000000004547
 20
128.22500000000079
 30
0.0
  0
VERTEX
  5
7DC3
  8
IV_OUTER_PROFILE
 10
116.0000000000004
 20
128.22500000000079
 30
0.0
 42
-0.4142135623730919
  0
VERTEX
  5
7DC4
  8
IV_OUTER_PROFILE
 10
118.22500000000031
 20
126.0000000000009
 30
0.0
  0
VERTEX
  5
7DC5
  8
IV_OUTER_PROFILE
 10
118.22500000000031
 20
0.0000000000009095
 30
0.0
 42
-0.4142135623730951
  0
VERTEX
  5
7DC6
  8
IV_OUTER_PROFILE
 10
116.0000000000004
 20
-2.2249999999989991
 30
0.0
  0
SEQEND
  5
7DC7
  8
IV_OUTER_PROFILE
  0
POLYLINE
  5
7698
  8
IV_INTERIOR_PROFILES
 66
     1
 10
0.0
 20
0.0
 30
0.0
 70
   129
  0
VERTEX
  5
7DC8
  8
IV_INTERIOR_PROFILES
 10
5.5000000000004539
 20
1.9750000000008181
 30
0.0
 42
1.0
  0
VERTEX
  5
7DC9
  8
IV_INTERIOR_PROFILES
 10
5.5000000000004539
 20
7.0250000000009996
 30
0.0
 42
1.0
  0
SEQEND
  5
7DCA
  8
IV_INTERIOR_PROFILES
  0
POLYLINE
  5
7699
  8
IV_INTERIOR_PROFILES
 66
     1
 10
0.0
 20
0.0
 30
0.0
 70
   129
  0
VERTEX
  5
7DCB
  8
IV_INTERIOR_PROFILES
 10
35.500000000000462
 20
1.9750000000008181
 30
0.0
 42
1.0
  0
VERTEX
  5
7DCC
  8
IV_INTERIOR_PROFILES
 10
35.500000000000462
 20
7.0250000000009996
 30
0.0
 42
1.0
  0
SEQEND
  5
7DCD
  8
IV_INTERIOR_PROFILES
  0
POLYLINE
  5
769A
  8
IV_INTERIOR_PROFILES
 66
     1
 10
0.0
 20
0.0
 30
0.0
 70
   129
  0
VERTEX
  5
7DCE
  8
IV_INTERIOR_PROFILES
 10
48.000000000000462
 20
5.4750000000008177
 30
0.0
 42
1.0
  0
VERTEX
  5
7DCF
  8
IV_INTERIOR_PROFILES
 10
48.000000000000462
 20
10.525000000001
 30
0.0
 42
1.0
  0
SEQEND
  5
7DD0
  8
IV_INTERIOR_PROFILES
  0
POLYLINE
  5
769B
  8
IV_INTERIOR_PROFILES
 66
     1
 10
0.0
 20
0.0
 30
0.0
 70
   129
  0
VERTEX
  5
7DD1
  8
IV_INTERIOR_PROFILES
 10
80.500000000000455
 20
1.9750000000008181
 30
0.0
 42
1.0
  0
VERTEX
  5
7DD2
  8
IV_INTERIOR_PROFILES
 10
80.500000000000455
 20
7.0250000000009996
 30
0.0
 42
1.0
  0
SEQEND
  5
7DD3
  8
IV_INTERIOR_PROFILES
  0
POLYLINE
  5
769C
  8
IV_INTERIOR_PROFILES
 66
     1
 10
0.0
 20
0.0
 30
0.0
 70
   129
  0
VERTEX
  5
7DD4
  8
IV_INTERIOR_PROFILES
 10
110.5000000000004
 20
1.9750000000008181
 30
0.0
 42
1.0
  0
VERTEX
  5
7DD5
  8
IV_INTERIOR_PROFILES
 10
110.5000000000004
 20
7.0250000000009996
 30
0.0
 42
1.0
  0
SEQEND
  5
7DD6
  8
IV_INTERIOR_PROFILES
  0
POLYLINE
  5
769D
  8
IV_INTERIOR_PROFILES
 66
     1
 10
0.0
 20
0.0
 30
0.0
 70
   129
  0
VERTEX
  5
7DD7
  8
IV_INTERIOR_PROFILES
 10
95.500000000000455
 20
18.225000000000819
 30
0.0
 42
1.0
  0
VERTEX
  5
7DD8
  8
IV_INTERIOR_PROFILES
 10
95.500000000000455
 20
22.775000000001
 30
0.0
 42
1.0
  0
SEQEND
  5
7DD9
  8
IV_INTERIOR_PROFILES
  0
POLYLINE
  5
769E
  8
IV_INTERIOR_PROFILES
 66
     1
 10
0.0
 20
0.0
 30
0.0
 70
   129
  0
VERTEX
  5
7DDA
  8
IV_INTERIOR_PROFILES
 10
35.500000000000462
 20
33.975000000000819
 30
0.0
 42
1.0
  0
VERTEX
  5
7DDB
  8
IV_INTERIOR_PROFILES
 10
35.500000000000462
 20
39.025000000001
 30
0.0
 42
1.0
  0
SEQEND
  5
7DDC
  8
IV_INTERIOR_PROFILES
  0
POLYLINE
  5
769F
  8
IV_INTERIOR_PROFILES
 66
     1
 10
0.0
 20
0.0
 30
0.0
 70
   129
  0
VERTEX
  5
7DDD
  8
IV_INTERIOR_PROFILES
 10
20.500000000000458
 20
18.225000000000819
 30
0.0
 42
1.0
  0
VERTEX
  5
7DDE
  8
IV_INTERIOR_PROFILES
 10
20.500000000000458
 20
22.775000000001
 30
0.0
 42
1.0
  0
SEQEND
  5
7DDF
  8
IV_INTERIOR_PROFILES
  0
POLYLINE
  5
76A0
  8
IV_INTERIOR_PROFILES
 66
     1
 10
0.0
 20
0.0
 30
0.0
 70
   129
  0
VERTEX
  5
7DE0
  8
IV_INTERIOR_PROFILES
 10
5.5000000000004539
 20
33.975000000000819
 30
0.0
 42
1.0
  0
VERTEX
  5
7DE1
  8
IV_INTERIOR_PROFILES
 10
5.5000000000004539
 20
39.025000000001
 30
0.0
 42
1.0
  0
SEQEND
  5
7DE2
  8
IV_INTERIOR_PROFILES
  0
POLYLINE
  5
76A1
  8
IV_INTERIOR_PROFILES
 66
     1
 10
0.0
 20
0.0
 30
0.0
 70
   129
  0
VERTEX
  5
7DE3
  8
IV_INTERIOR_PROFILES
 10
80.500000000000455
 20
33.975000000000819
 30
0.0
 42
1.0
  0
VERTEX
  5
7DE4
  8
IV_INTERIOR_PROFILES
 10
80.500000000000455
 20
39.025000000001
 30
0.0
 42
1.0
  0
SEQEND
  5
7DE5
  8
IV_INTERIOR_PROFILES
  0
POLYLINE
  5
76A2
  8
IV_INTERIOR_PROFILES
 66
     1
 10
0.0
 20
0.0
 30
0.0
 70
   129
  0
VERTEX
  5
7DE6
  8
IV_INTERIOR_PROFILES
 10
110.5000000000004
 20
33.975000000000819
 30
0.0
 42
1.0
  0
VERTEX
  5
7DE7
  8
IV_INTERIOR_PROFILES
 10
110.5000000000004
 20
39.025000000001
 30
0.0
 42
1.0
  0
SEQEND
  5
7DE8
  8
IV_INTERIOR_PROFILES
  0
POLYLINE
  5
76A3
  8
IV_INTERIOR_PROFILES
 66
     1
 10
0.0
 20
0.0
 30
0.0
 70
   129
  0
VERTEX
  5
7DE9
  8
IV_INTERIOR_PROFILES
 10
5.0000000000004539
 20
50.475000000000819
 30
0.0
 42
1.0
  0
VERTEX
  5
7DEA
  8
IV_INTERIOR_PROFILES
 10
5.0000000000004539
 20
55.525000000001
 30
0.0
 42
1.0
  0
SEQEND
  5
7DEB
  8
IV_INTERIOR_PROFILES
  0
POLYLINE
  5
76A4
  8
IV_INTERIOR_PROFILES
 66
     1
 10
0.0
 20
0.0
 30
0.0
 70
   129
  0
VERTEX
  5
7DEC
  8
IV_INTERIOR_PROFILES
 10
38.500000000000462
 20
50.475000000000819
 30
0.0
 42
1.0
  0
VERTEX
  5
7DED
  8
IV_INTERIOR_PROFILES
 10
38.500000000000462
 20
55.525000000001
 30
0.0
 42
1.0
  0
SEQEND
  5
7DEE
  8
IV_INTERIOR_PROFILES
  0
POLYLINE
  5
76A5
  8
IV_INTERIOR_PROFILES
 66
     1
 10
0.0
 20
0.0
 30
0.0
 70
   129
  0
VERTEX
  5
7DEF
  8
IV_INTERIOR_PROFILES
 10
111.0000000000004
 20
50.475000000000819
 30
0.0
 42
1.0
  0
VERTEX
  5
7DF0
  8
IV_INTERIOR_PROFILES
 10
111.0000000000004
 20
55.525000000001
 30
0.0
 42
1.0
  0
SEQEND
  5
7DF1
  8
IV_INTERIOR_PROFILES
  0
POLYLINE
  5
76A6
  8
IV_INTERIOR_PROFILES
 66
     1
 10
0.0
 20
0.0
 30
0.0
 70
   129
  0
VERTEX
  5
7DF2
  8
IV_INTERIOR_PROFILES
 10
5.0000000000004539
 20
70.475000000000819
 30
0.0
 42
1.0
  0
VERTEX
  5
7DF3
  8
IV_INTERIOR_PROFILES
 10
5.0000000000004539
 20
75.525000000001
 30
0.0
 42
1.0
  0
SEQEND
  5
7DF4
  8
IV_INTERIOR_PROFILES
  0
POLYLINE
  5
76A7
  8
IV_INTERIOR_PROFILES
 66
     1
 10
0.0
 20
0.0
 30
0.0
 70
   129
  0
VERTEX
  5
7DF5
  8
IV_INTERIOR_PROFILES
 10
38.500000000000462
 20
70.475000000000819
 30
0.0
 42
1.0
  0
VERTEX
  5
7DF6
  8
IV_INTERIOR_PROFILES
 10
38.500000000000462
 20
75.525000000001
 30
0.0
 42
1.0
  0
SEQEND
  5
7DF7
  8
IV_INTERIOR_PROFILES
  0
POLYLINE
  5
76A8
  8
IV_INTERIOR_PROFILES
 66
     1
 10
0.0
 20
0.0
 30
0.0
 70
   129
  0
VERTEX
  5
7DF8
  8
IV_INTERIOR_PROFILES
 10
111.0000000000004
 20
70.475000000000819
 30
0.0
 42
1.0
  0
VERTEX
  5
7DF9
  8
IV_INTERIOR_PROFILES
 10
111.0000000000004
 20
75.525000000001
 30
0.0
 42
1.0
  0
SEQEND
  5
7DFA
  8
IV_INTERIOR_PROFILES
  0
POLYLINE
  5
76A9
  8
IV_INTERIOR_PROFILES
 66
     1
 10
0.0
 20
0.0
 30
0.0
 70
   129
  0
VERTEX
  5
7DFB
  8
IV_INTERIOR_PROFILES
 10
110.5000000000004
 20
86.975000000000804
 30
0.0
 42
1.0
  0
VERTEX
  5
7DFC
  8
IV_INTERIOR_PROFILES
 10
110.5000000000004
 20
92.025000000001
 30
0.0
 42
1.0
  0
SEQEND
  5
7DFD
  8
IV_INTERIOR_PROFILES
  0
POLYLINE
  5
76AA
  8
IV_INTERIOR_PROFILES
 66
     1
 10
0.0
 20
0.0
 30
0.0
 70
   129
  0
VERTEX
  5
7DFE
  8
IV_INTERIOR_PROFILES
 10
80.500000000000455
 20
86.975000000000804
 30
0.0
 42
1.0
  0
VERTEX
  5
7DFF
  8
IV_INTERIOR_PROFILES
 10
80.500000000000455
 20
92.025000000001
 30
0.0
 42
1.0
  0
SEQEND
  5
7E00
  8
IV_INTERIOR_PROFILES
  0
POLYLINE
  5
76AB
  8
IV_INTERIOR_PROFILES
 66
     1
 10
0.0
 20
0.0
 30
0.0
 70
   129
  0
VERTEX
  5
7E01
  8
IV_INTERIOR_PROFILES
 10
35.500000000000462
 20
86.975000000000804
 30
0.0
 42
1.0
  0
VERTEX
  5
7E02
  8
IV_INTERIOR_PROFILES
 10
35.500000000000462
 20
92.025000000001
 30
0.0
 42
1.0
  0
SEQEND
  5
7E03
  8
IV_INTERIOR_PROFILES
  0
POLYLINE
  5
76AC
  8
IV_INTERIOR_PROFILES
 66
     1
 10
0.0
 20
0.0
 30
0.0
 70
   129
  0
VERTEX
  5
7E04
  8
IV_INTERIOR_PROFILES
 10
5.5000000000004539
 20
86.975000000000804
 30
0.0
 42
1.0
  0
VERTEX
  5
7E05
  8
IV_INTERIOR_PROFILES
 10
5.5000000000004539
 20
92.025000000001
 30
0.0
 42
1.0
  0
SEQEND
  5
7E06
  8
IV_INTERIOR_PROFILES
  0
POLYLINE
  5
76AD
  8
IV_INTERIOR_PROFILES
 66
     1
 10
0.0
 20
0.0
 30
0.0
 70
   129
  0
VERTEX
  5
7E07
  8
IV_INTERIOR_PROFILES
 10
20.500000000000458
 20
103.2250000000008
 30
0.0
 42
1.0
  0
VERTEX
  5
7E08
  8
IV_INTERIOR_PROFILES
 10
20.500000000000458
 20
107.7750000000005
 30
0.0
 42
1.0
  0
SEQEND
  5
7E09
  8
IV_INTERIOR_PROFILES
  0
POLYLINE
  5
76AE
  8
IV_INTERIOR_PROFILES
 66
     1
 10
0.0
 20
0.0
 30
0.0
 70
   129
  0
VERTEX
  5
7E0A
  8
IV_INTERIOR_PROFILES
 10
95.500000000000455
 20
103.2250000000008
 30
0.0
 42
1.0
  0
VERTEX
  5
7E0B
  8
IV_INTERIOR_PROFILES
 10
95.500000000000455
 20
107.7750000000005
 30
0.0
 42
1.0
  0
SEQEND
  5
7E0C
  8
IV_INTERIOR_PROFILES
  0
POLYLINE
  5
76AF
  8
IV_INTERIOR_PROFILES
 66
     1
 10
0.0
 20
0.0
 30
0.0
 70
   129
  0
VERTEX
  5
7E0D
  8
IV_INTERIOR_PROFILES
 10
110.5000000000004
 20
118.9750000000008
 30
0.0
 42
1.0
  0
VERTEX
  5
7E0E
  8
IV_INTERIOR_PROFILES
 10
110.5000000000004
 20
124.025000000001
 30
0.0
 42
1.0
  0
SEQEND
  5
7E0F
  8
IV_INTERIOR_PROFILES
  0
POLYLINE
  5
76B0
  8
IV_INTERIOR_PROFILES
 66
     1
 10
0.0
 20
0.0
 30
0.0
 70
   129
  0
VERTEX
  5
7E10
  8
IV_INTERIOR_PROFILES
 10
80.500000000000455
 20
118.9750000000008
 30
0.0
 42
1.0
  0
VERTEX
  5
7E11
  8
IV_INTERIOR_PROFILES
 10
80.500000000000455
 20
124.025000000001
 30
0.0
 42
1.0
  0
SEQEND
  5
7E12
  8
IV_INTERIOR_PROFILES
  0
POLYLINE
  5
76B1
  8
IV_INTERIOR_PROFILES
 66
     1
 10
0.0
 20
0.0
 30
0.0
 70
   129
  0
VERTEX
  5
7E13
  8
IV_INTERIOR_PROFILES
 10
48.000000000000462
 20
115.4750000000008
 30
0.0
 42
1.0
  0
VERTEX
  5
7E14
  8
IV_INTERIOR_PROFILES
 10
48.000000000000462
 20
120.525000000001
 30
0.0
 42
1.0
  0
SEQEND
  5
7E15
  8
IV_INTERIOR_PROFILES
  0
POLYLINE
  5
76B2
  8
IV_INTERIOR_PROFILES
 66
     1
 10
0.0
 20
0.0
 30
0.0
 70
   129
  0
VERTEX
  5
7E16
  8
IV_INTERIOR_PROFILES
 10
35.500000000000462
 20
118.9750000000008
 30
0.0
 42
1.0
  0
VERTEX
  5
7E17
  8
IV_INTERIOR_PROFILES
 10
35.500000000000462
 20
124.025000000001
 30
0.0
 42
1.0
  0
SEQEND
  5
7E18
  8
IV_INTERIOR_PROFILES
  0
POLYLINE
  5
76B3
  8
IV_INTERIOR_PROFILES
 66
     1
 10
0.0
 20
0.0
 30
0.0
 70
   129
  0
VERTEX
  5
7E19
  8
IV_INTERIOR_PROFILES
 10
5.5000000000004539
 20
118.9750000000008
 30
0.0
 42
1.0
  0
VERTEX
  5
7E1A
  8
IV_INTERIOR_PROFILES
 10
5.5000000000004539
 20
124.025000000001
 30
0.0
 42
1.0
  0
SEQEND
  5
7E1B
  8
IV_INTERIOR_PROFILES
  0
CIRCLE
  5
76B4
  8
0
 10
68.000000000000909
 20
98.000000000000909
 30
0.0
 40
3.1000000000000001
  0
CIRCLE
  5
76B5
  8
0
 10
48.000000000000909
 20
98.000000000000909
 30
0.0
 40
3.1000000000000001
  0
CIRCLE
  5
76B6
  8
0
 10
48.000000000001812
 20
28.000000000000909
 30
0.0
 40
3.1000000000000001
  0
CIRCLE
  5
76B7
  8
0
 10
68.000000000001805
 20
28.000000000000909
 30
0.0
 40
3.1000000000000001
  0
POLYLINE
  5
76B8
  8
IV_INTERIOR_PROFILES
 66
     1
 10
0.0
 20
0.0
 30
0.0
 70
   129
  0
VERTEX
  5
7E1C
  8
IV_INTERIOR_PROFILES
 10
95.500000000000455
 20
78.225000000000819
 30
0.0
 42
1.0
  0
VERTEX
  5
7E1D
  8
IV_INTERIOR_PROFILES
 10
95.500000000000455
 20
82.775000000000546
 30
0.0
 42
1.0
  0
SEQEND
  5
7E1E
  8
IV_INTERIOR_PROFILES
  0
POLYLINE
  5
76B9
  8
IV_INTERIOR_PROFILES
 66
     1
 10
0.0
 20
0.0
 30
0.0
 70
   129
  0
VERTEX
  5
7E1F
  8
IV_INTERIOR_PROFILES
 10
20.500000000000458
 20
78.225000000000819
 30
0.0
 42
1.0
  0
VERTEX
  5
7E20
  8
IV_INTERIOR_PROFILES
 10
20.500000000000458
 20
82.775000000000546
 30
0.0
 42
1.0
  0
SEQEND
  5
7E21
  8
IV_INTERIOR_PROFILES
  0
POLYLINE
  5
76BA
  8
IV_INTERIOR_PROFILES
 66
     1
 10
0.0
 20
0.0
 30
0.0
 70
   129
  0
VERTEX
  5
7E22
  8
IV_INTERIOR_PROFILES
 10
95.500000000000455
 20
47.775000000001
 30
0.0
 42
-1.0
  0
VERTEX
  5
7E23
  8
IV_INTERIOR_PROFILES
 10
95.500000000000455
 20
43.225000000001273
 30
0.0
 42
-1.0
  0
SEQEND
  5
7E24
  8
IV_INTERIOR_PROFILES
  0
POLYLINE
  5
76BB
  8
IV_INTERIOR_PROFILES
 66
     1
 10
0.0
 20
0.0
 30
0.0
 70
   129
  0
VERTEX
  5
7E25
  8
IV_INTERIOR_PROFILES
 10
20.500000000000458
 20
47.775000000001
 30
0.0
 42
-1.0
  0
VERTEX
  5
7E26
  8
IV_INTERIOR_PROFILES
 10
20.500000000000458
 20
43.225000000001273
 30
0.0
 42
-1.0
  0
SEQEND
  5
7E27
  8
IV_INTERIOR_PROFILES
  0
ENDBLK
  5
76BC
  8
0
  0
BLOCK
  8
0
  2
*D47
 70
     1
 10
0.0
 20
0.0
 30
0.0
  3
*D47
  1

  0
LINE
  5
7CE4
  8
0
 62
     0
 10
583.84274283342074
 20
1784.9080087904019
 30
0.0
 11
583.84274283342074
 21
1816.9208899443729
 31
0.0
  0
LINE
  5
7CE5
  8
0
 62
     0
 10
988.84274283342074
 20
1784.9080087904019
 30
0.0
 11
988.84274283342074
 21
1816.9208899443729
 31
0.0
  0
LINE
  5
7CE6
  8
0
 62
     0
 10
608.84274283342074
 20
1816.7408899443731
 30
0.0
 11
679.59274283342074
 21
1816.7408899443731
 31
0.0
  0
LINE
  5
7CE7
  8
0
 62
     0
 10
963.84274283342074
 20
1816.7408899443731
 30
0.0
 11
893.09274283342074
 21
1816.7408899443731
 31
0.0
  0
SOLID
  5
7CE8
  8
0
 62
     0
 10
608.84274283342074
 20
1820.9075566110389
 30
0.0
 11
608.84274283342074
 21
1812.5742232777061
 31
0.0
 12
583.84274283342074
 22
1816.7408899443731
 32
0.0
 13
583.84274283342074
 23
1816.7408899443731
 33
0.0
  0
SOLID
  5
7CE9
  8
0
 62
     0
 10
963.84274283342074
 20
1820.9075566110389
 30
0.0
 11
963.84274283342074
 21
1812.5742232777061
 31
0.0
 12
988.84274283342074
 22
1816.7408899443731
 32
0.0
 13
988.84274283342074
 23
1816.7408899443731
 33
0.0
  0
TEXT
  8
0
  40
33
  5
7E2C
  62
0
  72
0
  71
0
 10
720.343
 20
1758.33
 30
0.000000
  1
405.0000
  0
POINT
  5
7CEB
  8
DEFPOINTS
 62
     0
 10
583.84274283342074
 20
1769.9080087904019
 30
0.0
  0
POINT
  5
7CEC
  8
DEFPOINTS
 62
     0
 10
988.84274283342074
 20
1769.9080087904019
 30
0.0
  0
POINT
  5
7CED
  8
DEFPOINTS
 62
     0
 10
988.84274283342074
 20
1816.7408899443731
 30
0.0
  0
ENDBLK
  5
7CE3
  8
0
  0
BLOCK
  8
0
  2
*D48
 70
     1
 10
0.0
 20
0.0
 30
0.0
  3
*D48
  1

  0
LINE
  5
7CF1
  8
0
 62
     0
 10
988.84274283342074
 20
1784.9080087904019
 30
0.0
 11
988.84274283342074
 21
1816.9208899443729
 31
0.0
  0
LINE
  5
7CF2
  8
0
 62
     0
 10
1393.842742833421
 20
1784.9080087904019
 30
0.0
 11
1393.842742833421
 21
1816.9208899443729
 31
0.0
  0
LINE
  5
7CF3
  8
0
 62
     0
 10
1013.8427428334199
 20
1816.7408899443731
 30
0.0
 11
1084.592742833421
 21
1816.7408899443731
 31
0.0
  0
LINE
  5
7CF4
  8
0
 62
     0
 10
1368.842742833421
 20
1816.7408899443731
 30
0.0
 11
1298.092742833421
 21
1816.7408899443731
 31
0.0
  0
SOLID
  5
7CF5
  8
0
 62
     0
 10
1013.8427428334199
 20
1820.9075566110389
 30
0.0
 11
1013.8427428334199
 21
1812.5742232777061
 31
0.0
 12
988.84274283342074
 22
1816.7408899443731
 32
0.0
 13
988.84274283342074
 23
1816.7408899443731
 33
0.0
  0
SOLID
  5
7CF6
  8
0
 62
     0
 10
1368.842742833421
 20
1820.9075566110389
 30
0.0
 11
1368.842742833421
 21
1812.5742232777061
 31
0.0
 12
1393.842742833421
 22
1816.7408899443731
 32
0.0
 13
1393.842742833421
 23
1816.7408899443731
 33
0.0
  0
TEXT
  8
0
  40
33
  5
7E2D
  62
0
  72
0
  71
0
 10
1125.34
 20
1758.33
 30
0.000000
  1
405.0000
  0
POINT
  5
7CF8
  8
DEFPOINTS
 62
     0
 10
988.84274283342074
 20
1769.9080087904019
 30
0.0
  0
POINT
  5
7CF9
  8
DEFPOINTS
 62
     0
 10
1393.842742833421
 20
1769.9080087904019
 30
0.0
  0
POINT
  5
7CFA
  8
DEFPOINTS
 62
     0
 10
1393.842742833421
 20
1816.7408899443731
 30
0.0
  0
ENDBLK
  5
7CF0
  8
0
  0
BLOCK
  8
0
  2
*D49
 70
     1
 10
0.0
 20
0.0
 30
0.0
  3
*D49
  1

  0
LINE
  5
7CFE
  8
0
 62
     0
 10
1393.842742833421
 20
1784.9080087904019
 30
0.0
 11
1393.842742833421
 21
1816.9208899443729
 31
0.0
  0
LINE
  5
7CFF
  8
0
 62
     0
 10
1798.842742833421
 20
1784.9080087904019
 30
0.0
 11
1798.842742833421
 21
1816.9208899443729
 31
0.0
  0
LINE
  5
7D00
  8
0
 62
     0
 10
1418.842742833421
 20
1816.7408899443731
 30
0.0
 11
1489.592742833421
 21
1816.7408899443731
 31
0.0
  0
LINE
  5
7D01
  8
0
 62
     0
 10
1773.842742833421
 20
1816.7408899443731
 30
0.0
 11
1703.092742833421
 21
1816.7408899443731
 31
0.0
  0
SOLID
  5
7D02
  8
0
 62
     0
 10
1418.842742833421
 20
1820.9075566110389
 30
0.0
 11
1418.842742833421
 21
1812.5742232777061
 31
0.0
 12
1393.842742833421
 22
1816.7408899443731
 32
0.0
 13
1393.842742833421
 23
1816.7408899443731
 33
0.0
  0
SOLID
  5
7D03
  8
0
 62
     0
 10
1773.842742833421
 20
1820.9075566110389
 30
0.0
 11
1773.842742833421
 21
1812.5742232777061
 31
0.0
 12
1798.842742833421
 22
1816.7408899443731
 32
0.0
 13
1798.842742833421
 23
1816.7408899443731
 33
0.0
  0
TEXT
  8
0
  40
33
  5
7E2E
  62
0
  72
0
  71
0
 10
1530.34
 20
1758.33
 30
0.000000
  1
405.0000
  0
POINT
  5
7D05
  8
DEFPOINTS
 62
     0
 10
1393.842742833421
 20
1769.9080087904019
 30
0.0
  0
POINT
  5
7D06
  8
DEFPOINTS
 62
     0
 10
1798.842742833421
 20
1769.9080087904019
 30
0.0
  0
POINT
  5
7D07
  8
DEFPOINTS
 62
     0
 10
1798.842742833421
 20
1816.7408899443731
 30
0.0
  0
ENDBLK
  5
7CFD
  8
0
  0
BLOCK
  8
0
  2
*D50
 70
     1
 10
0.0
 20
0.0
 30
0.0
  3
*D50
  1

  0
LINE
  5
7D0B
  8
0
 62
     0
 10
1798.842742833421
 20
1784.9080087904019
 30
0.0
 11
1798.842742833421
 21
1816.9208899443729
 31
0.0
  0
LINE
  5
7D0C
  8
0
 62
     0
 10
2203.8427428334212
 20
1784.9080087904019
 30
0.0
 11
2203.8427428334212
 21
1816.9208899443729
 31
0.0
  0
LINE
  5
7D0D
  8
0
 62
     0
 10
1823.842742833421
 20
1816.7408899443731
 30
0.0
 11
1894.592742833421
 21
1816.7408899443731
 31
0.0
  0
LINE
  5
7D0E
  8
0
 62
     0
 10
2178.8427428334212
 20
1816.7408899443731
 30
0.0
 11
2108.0927428334212
 21
1816.7408899443731
 31
0.0
  0
SOLID
  5
7D0F
  8
0
 62
     0
 10
1823.842742833421
 20
1820.9075566110389
 30
0.0
 11
1823.842742833421
 21
1812.5742232777061
 31
0.0
 12
1798.842742833421
 22
1816.7408899443731
 32
0.0
 13
1798.842742833421
 23
1816.7408899443731
 33
0.0
  0
SOLID
  5
7D10
  8
0
 62
     0
 10
2178.8427428334212
 20
1820.9075566110389
 30
0.0
 11
2178.8427428334212
 21
1812.5742232777061
 31
0.0
 12
2203.8427428334212
 22
1816.7408899443731
 32
0.0
 13
2203.8427428334212
 23
1816.7408899443731
 33
0.0
  0
TEXT
  8
0
  40
33
  5
7E2F
  62
0
  72
0
  71
0
 10
1935.34
 20
1758.33
 30
0.000000
  1
405.0000
  0
POINT
  5
7D12
  8
DEFPOINTS
 62
     0
 10
1798.842742833421
 20
1769.9080087904019
 30
0.0
  0
POINT
  5
7D13
  8
DEFPOINTS
 62
     0
 10
2203.8427428334212
 20
1769.9080087904019
 30
0.0
  0
POINT
  5
7D14
  8
DEFPOINTS
 62
     0
 10
2203.8427428334212
 20
1816.7408899443731
 30
0.0
  0
ENDBLK
  5
7D0A
  8
0
  0
BLOCK
  8
0
  2
*D51
 70
     1
 10
0.0
 20
0.0
 30
0.0
  3
*D51
  1

  0
LINE
  5
7D18
  8
0
 62
     0
 10
2203.8427428334212
 20
1784.9080087904019
 30
0.0
 11
2203.8427428334212
 21
1816.9208899443729
 31
0.0
  0
LINE
  5
7D19
  8
0
 62
     0
 10
2613.8427428334212
 20
1784.9080087904019
 30
0.0
 11
2613.8427428334212
 21
1816.9208899443729
 31
0.0
  0
LINE
  5
7D1A
  8
0
 62
     0
 10
2228.8427428334212
 20
1816.7408899443731
 30
0.0
 11
2307.5927428334212
 21
1816.7408899443731
 31
0.0
  0
LINE
  5
7D1B
  8
0
 62
     0
 10
2588.8427428334212
 20
1816.7408899443731
 30
0.0
 11
2510.0927428334212
 21
1816.7408899443731
 31
0.0
  0
SOLID
  5
7D1C
  8
0
 62
     0
 10
2228.8427428334212
 20
1820.9075566110389
 30
0.0
 11
2228.8427428334212
 21
1812.5742232777061
 31
0.0
 12
2203.8427428334212
 22
1816.7408899443731
 32
0.0
 13
2203.8427428334212
 23
1816.7408899443731
 33
0.0
  0
SOLID
  5
7D1D
  8
0
 62
     0
 10
2588.8427428334212
 20
1820.9075566110389
 30
0.0
 11
2588.8427428334212
 21
1812.5742232777061
 31
0.0
 12
2613.8427428334212
 22
1816.7408899443731
 32
0.0
 13
2613.8427428334212
 23
1816.7408899443731
 33
0.0
  0
TEXT
  8
0
  40
33
  5
7E30
  62
0
  72
0
  71
0
 10
2342.84
 20
1758.33
 30
0.000000
  1
410.0000
  0
POINT
  5
7D1F
  8
DEFPOINTS
 62
     0
 10
2203.8427428334212
 20
1769.9080087904019
 30
0.0
  0
POINT
  5
7D20
  8
DEFPOINTS
 62
     0
 10
2613.8427428334212
 20
1769.9080087904019
 30
0.0
  0
POINT
  5
7D21
  8
DEFPOINTS
 62
     0
 10
2613.8427428334212
 20
1816.7408899443731
 30
0.0
  0
ENDBLK
  5
7D17
  8
0
  0
BLOCK
  8
0
  2
*D52
 70
     1
 10
0.0
 20
0.0
 30
0.0
  3
*D52
  1

  0
LINE
  5
7D25
  8
0
 62
     0
 10
583.84274283342074
 20
1057.27784109654
 30
0.0
 11
583.84274283342074
 21
1029.501919363187
 31
0.0
  0
LINE
  5
7D26
  8
0
 62
     0
 10
1598.842742833421
 20
1057.27784109654
 30
0.0
 11
1598.842742833421
 21
1029.501919363187
 31
0.0
  0
LINE
  5
7D27
  8
0
 62
     0
 10
608.84274283342074
 20
1029.681919363187
 30
0.0
 11
979.09274283342074
 21
1029.681919363187
 31
0.0
  0
LINE
  5
7D28
  8
0
 62
     0
 10
1573.842742833421
 20
1029.681919363187
 30
0.0
 11
1203.592742833421
 21
1029.681919363187
 31
0.0
  0
SOLID
  5
7D29
  8
0
 62
     0
 10
608.84274283342074
 20
1033.848586029854
 30
0.0
 11
608.84274283342074
 21
1025.5152526965201
 31
0.0
 12
583.84274283342074
 22
1029.681919363187
 32
0.0
 13
583.84274283342074
 23
1029.681919363187
 33
0.0
  0
SOLID
  5
7D2A
  8
0
 62
     0
 10
1573.842742833421
 20
1033.848586029854
 30
0.0
 11
1573.842742833421
 21
1025.5152526965201
 31
0.0
 12
1598.842742833421
 22
1029.681919363187
 32
0.0
 13
1598.842742833421
 23
1029.681919363187
 33
0.0
  0
TEXT
  8
0
  40
33
  5
7E31
  62
0
  72
0
  71
0
 10
1025.34
 20
971.272
 30
0.000000
  1
1015.0000
  0
POINT
  5
7D2C
  8
DEFPOINTS
 62
     0
 10
583.84274283342074
 20
1072.2778410965409
 30
0.0
  0
POINT
  5
7D2D
  8
DEFPOINTS
 62
     0
 10
1598.842742833421
 20
1072.2778410965409
 30
0.0
  0
POINT
  5
7D2E
  8
DEFPOINTS
 62
     0
 10
1598.842742833421
 20
1029.681919363187
 30
0.0
  0
ENDBLK
  5
7D24
  8
0
  0
BLOCK
  8
0
  2
*D53
 70
     1
 10
0.0
 20
0.0
 30
0.0
  3
*D53
  1

  0
LINE
  5
7D32
  8
0
 62
     0
 10
2613.8427428334212
 20
1057.27784109654
 30
0.0
 11
2613.8427428334212
 21
1029.501919363187
 31
0.0
  0
LINE
  5
7D33
  8
0
 62
     0
 10
1598.842742833421
 20
1057.27784109654
 30
0.0
 11
1598.842742833421
 21
1029.501919363187
 31
0.0
  0
LINE
  5
7D34
  8
0
 62
     0
 10
2588.8427428334212
 20
1029.681919363187
 30
0.0
 11
2218.5927428334221
 21
1029.681919363187
 31
0.0
  0
LINE
  5
7D35
  8
0
 62
     0
 10
1623.842742833421
 20
1029.681919363187
 30
0.0
 11
1994.092742833421
 21
1029.681919363187
 31
0.0
  0
SOLID
  5
7D36
  8
0
 62
     0
 10
2588.8427428334212
 20
1033.848586029854
 30
0.0
 11
2588.8427428334212
 21
1025.5152526965201
 31
0.0
 12
2613.8427428334212
 22
1029.681919363187
 32
0.0
 13
2613.8427428334212
 23
1029.681919363187
 33
0.0
  0
SOLID
  5
7D37
  8
0
 62
     0
 10
1623.842742833421
 20
1033.848586029854
 30
0.0
 11
1623.842742833421
 21
1025.5152526965201
 31
0.0
 12
1598.842742833421
 22
1029.681919363187
 32
0.0
 13
1598.842742833421
 23
1029.681919363187
 33
0.0
  0
TEXT
  8
0
  40
33
  5
7E32
  62
0
  72
0
  71
0
 10
2040.34
 20
971.272
 30
0.000000
  1
1015.0000
  0
POINT
  5
7D39
  8
DEFPOINTS
 62
     0
 10
2613.8427428334212
 20
1072.2778410965409
 30
0.0
  0
POINT
  5
7D3A
  8
DEFPOINTS
 62
     0
 10
1598.842742833421
 20
1072.2778410965409
 30
0.0
  0
POINT
  5
7D3B
  8
DEFPOINTS
 62
     0
 10
1598.842742833421
 20
1029.681919363187
 30
0.0
  0
ENDBLK
  5
7D31
  8
0
  0
BLOCK
  8
0
  2
*D54
 70
     1
 10
0.0
 20
0.0
 30
0.0
  3
*D54
  1

  0
LINE
  5
7D3F
  8
0
 62
     0
 10
568.84274283342074
 20
1769.9080087904019
 30
0.0
 11
529.9401976287968
 21
1769.9080087904019
 31
0.0
  0
LINE
  5
7D40
  8
0
 62
     0
 10
568.84274283342074
 20
1167.9080087904019
 30
0.0
 11
529.94019762879657
 21
1167.9080087904019
 31
0.0
  0
LINE
  5
7D41
  8
0
 62
     0
 10
530.12019762879675
 20
1744.9080087904019
 30
0.0
 11
530.12019762879675
 21
1490.4080087904019
 31
0.0
  0
LINE
  5
7D42
  8
0
 62
     0
 10
530.12019762879663
 20
1192.9080087904019
 30
0.0
 11
530.12019762879675
 21
1447.4080087904019
 31
0.0
  0
SOLID
  5
7D43
  8
0
 62
     0
 10
525.95353096213012
 20
1744.9080087904019
 30
0.0
 11
534.28686429546326
 21
1744.9080087904019
 31
0.0
 12
530.12019762879675
 22
1769.9080087904019
 32
0.0
 13
530.12019762879675
 23
1769.9080087904019
 33
0.0
  0
SOLID
  5
7D44
  8
0
 62
     0
 10
525.95353096212989
 20
1192.9080087904019
 30
0.0
 11
534.28686429546315
 21
1192.9080087904019
 31
0.0
 12
530.12019762879663
 22
1167.9080087904019
 32
0.0
 13
530.12019762879663
 23
1167.9080087904019
 33
0.0
  0
TEXT
  8
0
  40
33
  5
7E33
  62
0
  72
0
  71
0
 10
464.120
 20
1410.50
 30
0.000000
  1
602.0000
  0
POINT
  5
7D46
  8
DEFPOINTS
 62
     0
 10
583.84274283342074
 20
1769.9080087904019
 30
0.0
  0
POINT
  5
7D47
  8
DEFPOINTS
 62
     0
 10
583.84274283342074
 20
1167.9080087904019
 30
0.0
  0
POINT
  5
7D48
  8
DEFPOINTS
 62
     0
 10
530.12019762879663
 20
1167.9080087904019
 30
0.0
  0
ENDBLK
  5
7D3E
  8
0
  0
BLOCK
  8
0
  2
*D55
 70
     1
 10
0.0
 20
0.0
 30
0.0
  3
*D55
  1

  0
LINE
  5
7D4C
  8
0
 62
     0
 10
568.84274283342074
 20
1167.9080087904019
 30
0.0
 11
529.94019762879657
 21
1167.9080087904019
 31
0.0
  0
LINE
  5
7D4D
  8
0
 62
     0
 10
568.84274283342074
 20
1084.9080087904019
 30
0.0
 11
529.94019762879657
 21
1084.9080087904019
 31
0.0
  0
LINE
  5
7D4E
  8
0
 62
     0
 10
530.12019762879663
 20
1142.9080087904019
 30
0.0
 11
530.12019762879663
 21
1109.9080087904019
 31
0.0
  0
LINE
  5
7D4F
  8
0
 62
     0
 10
530.12019762879663
 20
1084.9080087904019
 30
0.0
 11
530.12019762879663
 21
1059.9080087904019
 31
0.0
  0
LINE
  5
7D50
  8
0
 62
     0
 10
530.12019762879663
 20
1059.9080087904019
 30
0.0
 11
505.12019762879657
 21
1059.9080087904019
 31
0.0
  0
SOLID
  5
7D51
  8
0
 62
     0
 10
525.95353096212989
 20
1142.9080087904019
 30
0.0
 11
534.28686429546315
 21
1142.9080087904019
 31
0.0
 12
530.12019762879663
 22
1167.9080087904019
 32
0.0
 13
530.12019762879663
 23
1167.9080087904019
 33
0.0
  0
SOLID
  5
7D52
  8
0
 62
     0
 10
525.95353096212989
 20
1109.9080087904019
 30
0.0
 11
534.28686429546315
 21
1109.9080087904019
 31
0.0
 12
530.12019762879663
 22
1084.9080087904019
 32
0.0
 13
530.12019762879663
 23
1084.9080087904019
 33
0.0
  0
TEXT
  8
0
  40
33
  5
7E34
  62
0
  72
0
  71
0
 10
346.120
 20
1001.50
 30
0.000000
  1
83.0000
  0
POINT
  5
7D54
  8
DEFPOINTS
 62
     0
 10
583.84274283342074
 20
1167.9080087904019
 30
0.0
  0
POINT
  5
7D55
  8
DEFPOINTS
 62
     0
 10
583.84274283342074
 20
1084.9080087904019
 30
0.0
  0
POINT
  5
7D56
  8
DEFPOINTS
 62
     0
 10
530.12019762879663
 20
1084.9080087904019
 30
0.0
  0
ENDBLK
  5
7D4B
  8
0
  0
BLOCK
  8
0
  2
*D56
 70
     1
 10
0.0
 20
0.0
 30
0.0
  3
*D56
  1

  0
LINE
  5
7D5A
  8
0
 62
     0
 10
568.84274283342074
 20
1769.9080087904019
 30
0.0
 11
463.03802318009849
 21
1769.9080087904019
 31
0.0
  0
LINE
  5
7D5B
  8
0
 62
     0
 10
568.84274283342074
 20
1084.9080087904019
 30
0.0
 11
463.03802318009832
 21
1084.9080087904019
 31
0.0
  0
LINE
  5
7D5C
  8
0
 62
     0
 10
463.2180231800985
 20
1744.9080087904019
 30
0.0
 11
463.21802318009838
 21
1448.9080087904019
 31
0.0
  0
LINE
  5
7D5D
  8
0
 62
     0
 10
463.21802318009833
 20
1109.9080087904019
 30
0.0
 11
463.21802318009833
 21
1405.9080087904019
 31
0.0
  0
SOLID
  5
7D5E
  8
0
 62
     0
 10
459.05135651343181
 20
1744.9080087904019
 30
0.0
 11
467.38468984676513
 21
1744.9080087904019
 31
0.0
 12
463.2180231800985
 22
1769.9080087904019
 32
0.0
 13
463.2180231800985
 23
1769.9080087904019
 33
0.0
  0
SOLID
  5
7D5F
  8
0
 62
     0
 10
459.05135651343159
 20
1109.9080087904019
 30
0.0
 11
467.38468984676501
 21
1109.9080087904019
 31
0.0
 12
463.21802318009833
 22
1084.9080087904019
 32
0.0
 13
463.21802318009833
 23
1084.9080087904019
 33
0.0
  0
TEXT
  8
0
  40
33
  5
7E35
  62
0
  72
0
  71
0
 10
397.218
 20
1369.00
 30
0.000000
  1
685.0000
  0
POINT
  5
7D61
  8
DEFPOINTS
 62
     0
 10
583.84274283342074
 20
1769.9080087904019
 30
0.0
  0
POINT
  5
7D62
  8
DEFPOINTS
 62
     0
 10
583.84274283342074
 20
1084.9080087904019
 30
0.0
  0
POINT
  5
7D63
  8
DEFPOINTS
 62
     0
 10
463.21802318009833
 20
1084.9080087904019
 30
0.0
  0
ENDBLK
  5
7D59
  8
0
  0
BLOCK
  8
0
  2
*D57
 70
     1
 10
0.0
 20
0.0
 30
0.0
  3
*D57
  1

  0
LINE
  5
7D67
  8
0
 62
     0
 10
583.84274283342074
 20
1784.9080087904019
 30
0.0
 11
583.84274283342074
 21
1888.53210825972
 31
0.0
  0
LINE
  5
7D68
  8
0
 62
     0
 10
2613.8427428334212
 20
1784.9080087904019
 30
0.0
 11
2613.8427428334212
 21
1888.53210825972
 31
0.0
  0
LINE
  5
7D69
  8
0
 62
     0
 10
608.84274283342074
 20
1888.3521082597199
 30
0.0
 11
1478.342742833421
 21
1888.3521082597199
 31
0.0
  0
LINE
  5
7D6A
  8
0
 62
     0
 10
2588.8427428334212
 20
1888.3521082597199
 30
0.0
 11
1719.342742833421
 21
1888.3521082597199
 31
0.0
  0
SOLID
  5
7D6B
  8
0
 62
     0
 10
608.84274283342074
 20
1892.518774926386
 30
0.0
 11
608.84274283342074
 21
1884.1854415930529
 31
0.0
 12
583.84274283342074
 22
1888.3521082597199
 32
0.0
 13
583.84274283342074
 23
1888.3521082597199
 33
0.0
  0
SOLID
  5
7D6C
  8
0
 62
     0
 10
2588.8427428334212
 20
1892.518774926386
 30
0.0
 11
2588.8427428334212
 21
1884.1854415930529
 31
0.0
 12
2613.8427428334212
 22
1888.3521082597199
 32
0.0
 13
2613.8427428334212
 23
1888.3521082597199
 33
0.0
  0
TEXT
  8
0
  40
33
  5
7E36
  62
0
  72
0
  71
0
 10
1532.84
 20
1829.94
 30
0.000000
  1
2030.0000
  0
POINT
  5
7D6E
  8
DEFPOINTS
 62
     0
 10
583.84274283342074
 20
1769.9080087904019
 30
0.0
  0
POINT
  5
7D6F
  8
DEFPOINTS
 62
     0
 10
2613.8427428334212
 20
1769.9080087904019
 30
0.0
  0
POINT
  5
7D70
  8
DEFPOINTS
 62
     0
 10
2613.8427428334212
 20
1888.3521082597199
 30
0.0
  0
ENDBLK
  5
7D66
  8
0
  0
ENDSEC
  0
SECTION
  2
ENTITIES
  0
POLYLINE
  5
29F
  8
0
 62
   242
 66
     1
 10
0.0
 20
0.0
 30
0.0
 70
     1
  0
VERTEX
  5
780C
  8
0
 62
   242
 10
568.28225563909291
 20
297.84889229545212
 30
0.0
  0
VERTEX
  5
780D
  8
0
 62
   242
 10
1168.2822556390929
 20
297.84889229545212
 30
0.0
  0
VERTEX
  5
780E
  8
0
 62
   242
 10
1168.2822556390929
 20
697.84889229545195
 30
0.0
  0
VERTEX
  5
780F
  8
0
 62
   242
 10
568.28225563909291
 20
697.84889229545195
 30
0.0
  0
SEQEND
  5
7810
  8
0
 62
   242
  0
INSERT
  5
33C
  8
0
  2
Z-PLATE
 10
1043.557255639093
 20
306.57389229545208
 30
0.0
  0
INSERT
  5
38E
  8
0
  2
Z-TOP-AND-BOTTOM-PLATE
 10
1059.557255639093
 20
569.97389229545195
 30
0.0
  0
INSERT
  5
5FA
  8
0
  2
Y-PLATE
 10
1646.8322556390931
 20
304.84889229545212
 30
0.0
 50
90.0
  0
INSERT
  5
65B
  8
0
  2
Y-SIDE-PLATE
 10
3021.3635562609429
 20
435.34522273656
 30
0.0
 50
349.0
  0
INSERT
  5
65C
  8
0
  2
Y-SIDE-PLATE
 10
3369.2891066894572
 20
369.7153466873599
 30
0.0
 50
169.0000000000008
  0
INSERT
  5
696
  8
0
  2
Y-BACK-PLATE
 10
2405.2822556390929
 20
696.84889229545195
 30
0.0
  0
INSERT
  5
727
  8
0
  2
X-PLATE
 10
2408.5072556390928
 20
427.67389229545188
 30
0.0
  0
INSERT
  5
728
  8
0
  2
X-PLATE
 10
1912.057255639093
 20
629.12389229545215
 30
0.0
  0
INSERT
  5
777
  8
0
  2
X-SIDE-PLATE
 10
1794.282255639092
 20
460.74889229545192
 30
0.0
  0
INSERT
  5
778
  8
0
  2
X-SIDE-PLATE
 10
1794.282255639092
 20
379.29889229545211
 30
0.0
  0
INSERT
  5
818
  8
0
  2
X-FRONT-PLATE
 10
3015.6322556390928
 20
582.6488922954519
 30
0.0
  0
INSERT
  5
819
  8
0
  2
X-FRONT-PLATE
 10
2405.6322556390928
 20
766.09889229545183
 30
0.0
  0
INSERT
  5
832
  8
0
  2
X-UNDER-RIB-HORISONTAL
 10
575.28225563909268
 20
696.84889229545195
 30
0.0
  0
INSERT
  5
833
  8
0
  2
X-UNDER-RIB-HORISONTAL
 10
1185.282255639092
 20
696.84889229545195
 30
0.0
  0
INSERT
  5
841
  8
0
  2
X-UNDER-RIB-VERT
 10
1794.282255639092
 20
496.1988922954522
 30
0.0
  0
INSERT
  5
8AF
  8
0
  2
X-ALUS-1
 10
569.28225563909291
 20
599.19889229545186
 30
0.0
  0
INSERT
  5
913
  8
0
  2
X-ALUS-2
 10
1179.282255639092
 20
599.19889229545197
 30
0.0
  0
INSERT
  5
941
  8
0
  2
NEMA17-EXSTRAPLATE
 10
1138.407255639092
 20
667.97389229545195
 30
0.0
  0
INSERT
  5
943
  8
0
  2
NEMA17-EXSTRAPLATE
 10
1748.4072556390929
 20
667.97389229545195
 30
0.0
  0
INSERT
  5
1314
  8
0
  2
Z-TOP-AND-BOTTOM-PLATE
 10
1059.557255639093
 20
468.5238922954519
 30
0.0
  0
POLYLINE
  5
1CE4
  8
0
 62
   242
 66
     1
 10
0.0
 20
0.0
 30
0.0
 70
     1
  0
VERTEX
  5
7CC8
  8
0
 62
   242
 10
1178.2822556390929
 20
297.84889229545212
 30
0.0
  0
VERTEX
  5
7CC9
  8
0
 62
   242
 10
1778.282255639092
 20
297.84889229545212
 30
0.0
  0
VERTEX
  5
7CCA
  8
0
 62
   242
 10
1778.282255639092
 20
697.84889229545195
 30
0.0
  0
VERTEX
  5
7CCB
  8
0
 62
   242
 10
1178.2822556390929
 20
697.84889229545195
 30
0.0
  0
SEQEND
  5
7CCC
  8
0
 62
   242
  0
POLYLINE
  5
1CE5
  8
0
 62
   242
 66
     1
 10
0.0
 20
0.0
 30
0.0
 70
     1
  0
VERTEX
  5
7CCD
  8
0
 62
   242
 10
1788.282255639092
 20
297.84889229545212
 30
0.0
  0
VERTEX
  5
7CCE
  8
0
 62
   242
 10
2388.2822556390929
 20
297.84889229545212
 30
0.0
  0
VERTEX
  5
7CCF
  8
0
 62
   242
 10
2388.2822556390929
 20
697.84889229545195
 30
0.0
  0
VERTEX
  5
7CD0
  8
0
 62
   242
 10
1788.282255639092
 20
697.84889229545195
 30
0.0
  0
SEQEND
  5
7CD1
  8
0
 62
   242
  0
INSERT
  5
1CE6
  8
0
  2
X-UNDER-RIB-VERT
 10
1794.282255639092
 20
537.64889229545224
 30
0.0
  0
INSERT
  5
1CE9
  8
0
  2
X-UNDER-RIB-VERT
 10
574.28225563909291
 20
782.84889229545195
 30
0.0
  0
INSERT
  5
1CEA
  8
0
  2
X-UNDER-RIB-VERT
 10
2404.2822556390929
 20
333.29889229545211
 30
0.0
  0
INSERT
  5
26C4
  8
0
  2
NEMA17-EXSTRAPLATE
 10
1818.1572556390929
 20
667.97389229545195
 30
0.0
  0
POLYLINE
  5
30A2
  8
0
 62
   242
 66
     1
 10
0.0
 20
0.0
 30
0.0
 70
     1
  0
VERTEX
  5
7CD2
  8
0
 62
   242
 10
2398.2822556390929
 20
297.84889229545212
 30
0.0
  0
VERTEX
  5
7CD3
  8
0
 62
   242
 10
2998.2822556390929
 20
297.84889229545212
 30
0.0
  0
VERTEX
  5
7CD4
  8
0
 62
   242
 10
2998.2822556390929
 20
697.84889229545195
 30
0.0
  0
VERTEX
  5
7CD5
  8
0
 62
   242
 10
2398.2822556390929
 20
697.84889229545195
 30
0.0
  0
SEQEND
  5
7CD6
  8
0
 62
   242
  0
POLYLINE
  5
30A3
  8
0
 62
   242
 66
     1
 10
0.0
 20
0.0
 30
0.0
 70
     1
  0
VERTEX
  5
7CD7
  8
0
 62
   242
 10
3008.2822556390929
 20
297.84889229545212
 30
0.0
  0
VERTEX
  5
7CD8
  8
0
 62
   242
 10
3608.2822556390929
 20
297.84889229545212
 30
0.0
  0
VERTEX
  5
7CD9
  8
0
 62
   242
 10
3608.2822556390929
 20
697.84889229545195
 30
0.0
  0
VERTEX
  5
7CDA
  8
0
 62
   242
 10
3008.2822556390929
 20
697.84889229545195
 30
0.0
  0
SEQEND
  5
7CDB
  8
0
 62
   242
  0
INSERT
  5
3ABC
  8
0
  2
NEMA17-EXSTRAPLATE
 10
3578.4072556390929
 20
667.97389229545195
 30
0.0
  0
INSERT
  5
3ABD
  8
0
  2
NEMA17-EXSTRAPLATE
 10
3578.4072556390929
 20
609.22389229545195
 30
0.0
  0
INSERT
  5
3ABE
  8
0
  2
NEMA17-EXSTRAPLATE
 10
1818.1572556390929
 20
609.22389229545195
 30
0.0
  0
INSERT
  5
3ABF
  8
0
  2
NEMA17-EXSTRAPLATE
 10
1748.4072556390929
 20
609.22389229545195
 30
0.0
  0
POLYLINE
  5
6E3A
  8
0
 62
    51
 66
     1
 10
0.0
 20
0.0
 30
0.0
 39
0.75
 70
     1
  0
VERTEX
  5
7CDC
  8
0
 62
    51
 10
583.84274283342074
 20
1084.9080087904019
 30
0.0
  0
VERTEX
  5
7CDD
  8
0
 62
    51
 10
2613.8427428334212
 20
1084.9080087904019
 30
0.0
  0
VERTEX
  5
7CDE
  8
0
 62
    51
 10
2613.8427428334212
 20
1769.9080087904019
 30
0.0
  0
VERTEX
  5
7CDF
  8
0
 62
    51
 10
583.84274283342074
 20
1769.9080087904019
 30
0.0
  0
SEQEND
  5
7CE0
  8
0
 62
    51
  0
LINE
  5
6E3B
  8
0
 62
    51
 39
0.75
 10
583.84274283342074
 20
1167.9080087904019
 30
0.0
 11
2613.8427428334212
 21
1167.9080087904019
 31
0.0
  0
LINE
  5
6E3C
  8
0
 62
    51
 39
0.75
 10
988.84274283342074
 20
1769.9080087904019
 30
0.0
 11
988.84274283342074
 21
1167.9080087904019
 31
0.0
  0
LINE
  5
6E3D
  8
0
 62
    51
 39
0.75
 10
1393.842742833421
 20
1769.9080087904019
 30
0.0
 11
1393.842742833421
 21
1167.9080087904019
 31
0.0
  0
LINE
  5
6E3E
  8
0
 62
    51
 39
0.75
 10
1798.842742833421
 20
1769.9080087904019
 30
0.0
 11
1798.842742833421
 21
1167.9080087904019
 31
0.0
  0
LINE
  5
6E3F
  8
0
 62
    51
 39
0.75
 10
2203.8427428334212
 20
1769.9080087904019
 30
0.0
 11
2203.8427428334212
 21
1167.9080087904019
 31
0.0
  0
LINE
  5
6E40
  8
0
 62
    51
 39
0.75
 10
1598.842742833421
 20
1084.9080087904019
 30
0.0
 11
1598.842742833421
 21
1167.9080087904019
 31
0.0
  0
DIMENSION
  5
6E50
  8
0
  2
*D47
 10
988.84274283342074
 20
1816.7408899443731
 30
0.0
 11
786.34274283342074
 21
1816.7408899443731
 31
0.0
 70
     0
 13
583.84274283342074
 23
1769.9080087904019
 33
0.0
 14
988.84274283342074
 24
1769.9080087904019
 34
0.0
1001
ACAD
1000
DSTYLE
1002
{
1070
   287
1070
     3
1070
   287
1070
     3
1070
    41
1040
25.0
1070
    42
1040
15.0
1070
   140
1040
33.0
1070
   147
1040
5.0
1070
   274
1070
     2
1070
   279
1070
     0
1070
   284
1070
     0
1070
   285
1070
     0
1070
   286
1070
     0
1002
}
  0
DIMENSION
  5
6E5D
  8
0
  2
*D48
 10
1393.842742833421
 20
1816.7408899443731
 30
0.0
 11
1191.342742833421
 21
1816.7408899443731
 31
0.0
 70
     0
 13
988.84274283342074
 23
1769.9080087904019
 33
0.0
 14
1393.842742833421
 24
1769.9080087904019
 34
0.0
1001
ACAD
1000
DSTYLE
1002
{
1070
   287
1070
     3
1070
   287
1070
     4
1070
    41
1040
25.0
1070
    42
1040
15.0
1070
   140
1040
33.0
1070
   147
1040
5.0
1070
   274
1070
     2
1070
   279
1070
     0
1070
   284
1070
     0
1070
   285
1070
     0
1070
   286
1070
     0
1002
}
  0
DIMENSION
  5
6E6A
  8
0
  2
*D49
 10
1798.842742833421
 20
1816.7408899443731
 30
0.0
 11
1596.342742833421
 21
1816.7408899443731
 31
0.0
 70
     0
 13
1393.842742833421
 23
1769.9080087904019
 33
0.0
 14
1798.842742833421
 24
1769.9080087904019
 34
0.0
1001
ACAD
1000
DSTYLE
1002
{
1070
   287
1070
     3
1070
   287
1070
     3
1070
    41
1040
25.0
1070
    42
1040
15.0
1070
   140
1040
33.0
1070
   147
1040
5.0
1070
   274
1070
     2
1070
   279
1070
     0
1070
   284
1070
     0
1070
   285
1070
     0
1070
   286
1070
     0
1002
}
  0
DIMENSION
  5
6E77
  8
0
  2
*D50
 10
2203.8427428334212
 20
1816.7408899443731
 30
0.0
 11
2001.342742833421
 21
1816.7408899443731
 31
0.0
 70
     0
 13
1798.842742833421
 23
1769.9080087904019
 33
0.0
 14
2203.8427428334212
 24
1769.9080087904019
 34
0.0
1001
ACAD
1000
DSTYLE
1002
{
1070
   287
1070
     3
1070
   287
1070
     3
1070
    41
1040
25.0
1070
    42
1040
15.0
1070
   140
1040
33.0
1070
   147
1040
5.0
1070
   274
1070
     2
1070
   279
1070
     0
1070
   284
1070
     0
1070
   285
1070
     0
1070
   286
1070
     0
1002
}
  0
DIMENSION
  5
6E84
  8
0
  2
*D51
 10
2613.8427428334212
 20
1816.7408899443731
 30
0.0
 11
2408.8427428334212
 21
1816.7408899443731
 31
0.0
 70
     0
 13
2203.8427428334212
 23
1769.9080087904019
 33
0.0
 14
2613.8427428334212
 24
1769.9080087904019
 34
0.0
1001
ACAD
1000
DSTYLE
1002
{
1070
   287
1070
     3
1070
   287
1070
     3
1070
    41
1040
25.0
1070
    42
1040
15.0
1070
   140
1040
33.0
1070
   147
1040
5.0
1070
   274
1070
     2
1070
   279
1070
     0
1070
   284
1070
     0
1070
   285
1070
     0
1070
   286
1070
     0
1002
}
  0
DIMENSION
  5
6EBE
  8
0
  2
*D52
 10
1598.842742833421
 20
1029.681919363187
 30
0.0
 11
1091.342742833421
 21
1029.681919363187
 31
0.0
 70
     0
 13
583.84274283342074
 23
1072.2778410965409
 33
0.0
 14
1598.842742833421
 24
1072.2778410965409
 34
0.0
1001
ACAD
1000
DSTYLE
1002
{
1070
   287
1070
     3
1070
   287
1070
     3
1070
    41
1040
25.0
1070
    42
1040
15.0
1070
   140
1040
33.0
1070
   147
1040
5.0
1070
   274
1070
     2
1070
   279
1070
     0
1070
   284
1070
     0
1070
   285
1070
     0
1070
   286
1070
     0
1002
}
  0
DIMENSION
  5
6ECB
  8
0
  2
*D53
 10
1598.842742833421
 20
1029.681919363187
 30
0.0
 11
2106.3427428334212
 21
1029.681919363187
 31
0.0
 70
     0
 13
2613.8427428334212
 23
1072.2778410965409
 33
0.0
 14
1598.842742833421
 24
1072.2778410965409
 34
0.0
1001
ACAD
1000
DSTYLE
1002
{
1070
   287
1070
     3
1070
   287
1070
     3
1070
    41
1040
25.0
1070
    42
1040
15.0
1070
   140
1040
33.0
1070
   147
1040
5.0
1070
   274
1070
     2
1070
   279
1070
     0
1070
   284
1070
     0
1070
   285
1070
     0
1070
   286
1070
     0
1002
}
  0
DIMENSION
  5
6EFC
  8
0
  2
*D54
 10
530.12019762879663
 20
1167.9080087904019
 30
0.0
 11
530.1201976287964
 21
1468.9080087904019
 31
0.0
 70
     0
 13
583.84274283342074
 23
1769.9080087904019
 33
0.0
 14
583.84274283342074
 24
1167.9080087904019
 34
0.0
 50
90.0
1001
ACAD
1000
DSTYLE
1002
{
1070
   287
1070
     3
1070
   287
1070
     3
1070
    41
1040
25.0
1070
    42
1040
15.0
1070
   140
1040
33.0
1070
   147
1040
5.0
1070
   274
1070
     2
1070
   279
1070
     0
1070
   284
1070
     0
1070
   285
1070
     0
1070
   286
1070
     0
1002
}
  0
DIMENSION
  5
6F09
  8
0
  2
*D55
 10
530.12019762879663
 20
1084.9080087904019
 30
0.0
 11
412.1201976287964
 21
1059.9080087904019
 31
0.0
 70
     0
 13
583.84274283342074
 23
1167.9080087904019
 33
0.0
 14
583.84274283342074
 24
1084.9080087904019
 34
0.0
 50
90.0
1001
ACAD
1000
DSTYLE
1002
{
1070
   287
1070
     3
1070
   287
1070
     3
1070
    41
1040
25.0
1070
    42
1040
15.0
1070
   140
1040
33.0
1070
   147
1040
5.0
1070
   274
1070
     2
1070
   279
1070
     0
1070
   284
1070
     0
1070
   285
1070
     0
1070
   286
1070
     0
1002
}
  0
DIMENSION
  5
6F28
  8
0
  2
*D56
 10
463.21802318009833
 20
1084.9080087904019
 30
0.0
 11
463.2180231800981
 21
1427.4080087904019
 31
0.0
 70
     0
 13
583.84274283342074
 23
1769.9080087904019
 33
0.0
 14
583.84274283342074
 24
1084.9080087904019
 34
0.0
 50
90.0
1001
ACAD
1000
DSTYLE
1002
{
1070
   287
1070
     3
1070
   287
1070
     3
1070
    41
1040
25.0
1070
    42
1040
15.0
1070
   140
1040
33.0
1070
   147
1040
5.0
1070
   274
1070
     2
1070
   279
1070
     0
1070
   284
1070
     0
1070
   285
1070
     0
1070
   286
1070
     0
1002
}
  0
DIMENSION
  5
6F35
  8
0
  2
*D57
 10
2613.8427428334212
 20
1888.3521082597199
 30
0.0
 11
1598.842742833421
 21
1888.3521082597199
 31
0.0
 70
     0
 13
583.84274283342074
 23
1769.9080087904019
 33
0.0
 14
2613.8427428334212
 24
1769.9080087904019
 34
0.0
1001
ACAD
1000
DSTYLE
1002
{
1070
   287
1070
     3
1070
   287
1070
     3
1070
    41
1040
25.0
1070
    42
1040
15.0
1070
   140
1040
33.0
1070
   147
1040
5.0
1070
   274
1070
     2
1070
   279
1070
     0
1070
   284
1070
     0
1070
   285
1070
     0
1070
   286
1070
     0
1002
}
  0
POLYLINE
  5
6F6B
  8
0
 62
    85
 66
     1
 10
0.0
 20
0.0
 30
0.0
 70
     1
  0
VERTEX
  5
7D71
  8
0
 62
    85
 10
2398.2822556390929
 20
707.84889229545195
 30
0.0
  0
VERTEX
  5
7D72
  8
0
 62
    85
 10
3398.2822556390929
 20
707.84889229545195
 30
0.0
  0
VERTEX
  5
7D73
  8
0
 62
    85
 10
3398.2822556390929
 20
789.84889229545183
 30
0.0
  0
VERTEX
  5
7D74
  8
0
 62
    85
 10
2398.2822556390929
 20
789.84889229545183
 30
0.0
  0
SEQEND
  5
7D75
  8
0
 62
    85
  0
POLYLINE
  5
6F7B
  8
0
 62
    85
 66
     1
 10
0.0
 20
0.0
 30
0.0
 70
     1
  0
VERTEX
  5
7D76
  8
0
 62
    85
 10
568.28225563909291
 20
707.84889229545206
 30
0.0
  0
VERTEX
  5
7D77
  8
0
 62
    85
 10
1568.2822556390929
 20
707.84889229545206
 30
0.0
  0
VERTEX
  5
7D78
  8
0
 62
    85
 10
1568.2822556390929
 20
789.84889229545217
 30
0.0
  0
VERTEX
  5
7D79
  8
0
 62
    85
 10
568.28225563909291
 20
789.84889229545217
 30
0.0
  0
SEQEND
  5
7D7A
  8
0
 62
    85
  0
INSERT
  5
6F7C
  8
0
  2
X-UNDER-RIB-HORISONTAL
 10
3015.2822556390929
 20
696.84889229545195
 30
0.0
  0
INSERT
  5
76C8
  8
0
  2
Z_PLATE_II
 10
2878.282255639092
 20
568.62389229545113
 30
0.0
  0
ENDSEC
  0
EOF
